<?xml version="1.0" standalone="no"?>
<!DOCTYPE svg PUBLIC "-//W3C//DTD SVG 1.1//EN" "http://www.w3.org/Graphics/SVG/1.1/DTD/svg11.dtd" >
<svg xmlns="http://www.w3.org/2000/svg">
<metadata>Generated by IcoMoon</metadata>
<defs>
<font id="icomoon" horiz-adv-x="1024">
<font-face units-per-em="1024" ascent="960" descent="-64" />
<missing-glyph horiz-adv-x="1024" />
<glyph unicode="&#x20;" horiz-adv-x="512" d="" />
<glyph unicode="&#xe900;" glyph-name="link" d="M958.77 894.787c-41.977 41.977-97.974 65.093-157.696 65.093-59.704 0-115.719-23.116-157.696-65.093l-155.653-155.653c-56.203-56.203-75.853-135.163-59.395-207.481-16.149 3.638-32.778 5.715-49.768 5.715-59.704 0-115.719-23.116-157.678-65.093l-155.671-155.671c-86.939-86.939-86.939-228.452 0-315.391 41.977-41.977 97.974-65.093 157.696-65.093s115.719 23.116 157.696 65.093l155.653 155.653c56.203 56.203 75.853 135.163 59.395 207.481 16.149-3.638 32.778-5.715 49.768-5.715 59.721 0 115.736 23.116 157.696 65.093l155.671 155.653c86.957 86.957 86.957 228.452-0.017 315.408zM487.725 205.416l-155.653-155.653c-29.003-29.003-67.787-44.98-109.163-44.98s-80.143 15.977-109.163 44.98c-60.185 60.202-60.185 158.125 0 218.327l155.671 155.653c29.003 29.003 67.77 44.98 109.146 44.98 29.586 0 57.765-8.289 82.066-23.545l-133.035-133.035c-13.403-13.403-13.403-35.129 0-48.532 6.693-6.71 15.48-10.057 24.266-10.057s17.573 3.346 24.266 10.057l133.052 133.052c37.446-59.618 30.376-139.402-21.452-191.246zM910.237 627.928l-155.671-155.653c-29.003-29.003-67.77-44.98-109.163-44.98-29.586 0-57.748 8.289-82.048 23.545l133.035 133.035c13.403 13.403 13.403 35.129 0 48.532-13.386 13.403-35.146 13.403-48.532 0l-133.052-133.052c-37.446 59.618-30.376 139.384 21.452 191.229l155.653 155.653c29.003 29.003 67.787 44.98 109.163 44.98 41.393 0 80.143-15.977 109.163-44.98s44.98-67.77 44.98-109.163c0-41.376-15.977-80.143-44.98-109.146z" />
<glyph unicode="&#xe901;" glyph-name="maps-and-location" d="M886.453 492.563h-28.125v28.125h28.125zM839.578 492.563h-28.125v28.125h28.125zM850.91 787.91c-90.656 90.662-211.201 140.59-339.41 140.59s-248.754-49.928-339.41-140.59c-90.662-90.656-140.59-211.201-140.59-339.41s49.928-248.754 140.59-339.41c90.656-90.662 211.201-140.59 339.41-140.59s248.754 49.928 339.41 140.59c90.662 90.656 140.59 211.201 140.59 339.41s-49.928 248.754-140.59 339.41zM511.5-3.375c-249.164 0-451.875 202.711-451.875 451.875s202.711 451.875 451.875 451.875 451.875-202.711 451.875-451.875-202.711-451.875-451.875-451.875zM497.437 881.625h28.125v-160.424h-28.125zM944.625 434.438v28.125h-188.502c-1.172 80.379-12.352 158.367-32.602 227.309 41.133 10.23 79.014 23.326 112.758 39.012l-11.865 25.506c-32.59-15.152-69.352-27.797-109.412-37.646-24.035 70.641-57.082 127.195-95.988 164.051l-19.342-20.426c35.104-33.258 65.279-84.861 87.732-149.848-49.113-10.113-101.115-15.861-154.846-17.074l0.633-28.119c56.484 1.271 111.193 7.418 162.844 18.252 19.816-66.803 30.791-142.664 31.963-221.016h-77.074v-28.125h77.074c-1.178-78.352-12.146-154.207-31.963-221.027-54.158 11.373-111.375 17.537-170.473 18.381v98.713h-28.125v-98.713c-59.156-0.844-116.373-7.008-170.479-18.375-19.811 66.814-30.785 142.676-31.957 221.021h77.092v28.125h-77.092c1.172 78.363 12.146 154.225 31.963 221.045 51.621-10.846 106.289-17.010 162.732-18.281l0.627 28.119c-53.66 1.213-105.633 6.973-154.734 17.098 22.453 64.963 52.629 116.566 87.738 149.824l-19.342 20.426c-38.912-36.867-71.959-93.398-95.988-164.027-40.049 9.826-76.811 22.453-109.412 37.623l-11.865-25.506c33.756-15.709 71.643-28.787 112.758-38.982-20.25-68.959-31.43-146.959-32.602-227.338h-188.502v-28.125h188.502c1.172-80.367 12.352-158.367 32.602-227.32-41.115-10.207-79.002-23.291-112.77-39l11.854-25.506c32.619 15.17 69.387 27.803 109.436 37.641 24.035-70.635 57.082-127.189 95.988-164.045l19.342 20.426c-35.104 33.258-65.279 84.861-87.738 149.836 51.369 10.6 105.68 16.371 161.842 17.197v-188.291h28.125v188.291c56.127-0.826 110.426-6.604 161.842-17.203-22.453-64.975-52.629-116.584-87.738-149.83l19.348-20.426c38.906 36.855 71.953 93.398 95.988 164.045 40.055-9.838 76.816-22.471 109.406-37.641l11.871 25.506c-33.75 15.703-71.625 28.787-112.758 39 20.256 68.953 31.43 146.953 32.602 227.32zM325.184 315.574l22.963-30.961 163.354 66.123 163.354-66.123 22.963 30.961-186.316 364.436zM497.437 590.719v-215.332l-138.809-56.197zM525.562 375.387v215.326l138.809-271.518z" />
<glyph unicode="&#xe902;" glyph-name="music" d="M982.775 593.846c-27.514 57.436-64.216 107.181-110.155 149.228-45.954 42.048-100.538 75.595-163.706 100.619s-128.804 37.539-196.915 37.539c-68.101 0-133.737-12.521-196.917-37.539-63.184-25.016-117.742-58.563-163.696-100.619s-82.669-91.793-110.155-149.228c-27.49-57.442-41.231-117.139-41.231-179.070 0-68.113 12.303-132.522 36.92-193.242l12.312-30.154 113.843-20.298c9.025-34.049 27.592-62.048 55.698-84.001 28.096-21.938 60.197-32.913 96.304-32.913v-19.696c0-5.738 1.841-10.46 5.535-14.146 3.692-3.688 8.413-5.539 14.155-5.539h39.382c5.74 0 10.46 1.852 14.155 5.539 3.684 3.688 5.535 8.408 5.535 14.146v354.466c0 5.746-1.843 10.465-5.535 14.155-3.697 3.688-8.417 5.531-14.155 5.531h-39.382c-5.749 0-10.462-1.843-14.155-5.531-3.694-3.69-5.535-8.408-5.535-14.155v-19.688c-29.137 0-55.797-7.287-80.007-21.856-24.208-14.553-43.281-34.146-57.231-58.768l-41.852 7.391c-11.887 38.992-17.838 78.572-17.838 118.779 0 60.714 18.045 117.943 54.149 171.684 36.105 53.743 84.62 96.621 145.543 128.616 60.923 31.997 125.642 47.993 194.156 47.993 68.495 0 133.231-15.995 194.156-47.993 60.929-31.995 109.433-74.873 145.547-128.616 36.099-53.743 54.157-110.97 54.157-171.684 0-40.207-5.947-79.789-17.836-118.779l-41.86-7.397c-13.963 24.628-33.030 44.206-57.224 58.765-24.208 14.568-50.887 21.865-80.009 21.865v19.679c0 5.746-1.839 10.467-5.539 14.155-3.679 3.681-8.4 5.539-14.146 5.539h-39.388c-5.738 0-10.46-1.858-14.146-5.539-3.697-3.688-5.539-8.408-5.539-14.155v-354.47c0-5.738 1.843-10.46 5.539-14.146 3.688-3.688 8.408-5.539 14.146-5.539h39.388c5.746 0 10.467 1.852 14.146 5.539 3.703 3.688 5.539 8.408 5.539 14.146v19.696c36.099 0 68.202 10.975 96.304 32.913 28.111 21.953 46.669 49.952 55.69 84.001l113.845 20.3 12.318 30.152c24.606 60.72 36.918 125.131 36.918 193.24 0 61.947-13.737 121.643-41.227 179.085z" />
<glyph unicode="&#xe903;" glyph-name="success" d="M1007.484 332.387c9.113 0 16.516 7.403 16.516 16.516v231.226c0 45.532-37.048 82.581-82.581 82.581h-396.387c-9.113 0-16.516-7.403-16.516-16.516v-66.065c0-9.113 7.403-16.516 16.516-16.516h231.226v-132.129h-99.097c-27.315 0-49.548-22.234-49.548-49.548v-247.742h-231.226v49.548c0 9.113-7.403 16.516-16.516 16.516h-181.677v396.387h280.774c9.113 0 16.516 7.403 16.516 16.516v99.097h148.645c6.411 0 12.242 3.718 14.96 9.516 2.726 5.815 1.839 12.661-2.274 17.573l-73.766 88.524 73.766 88.524c4.113 4.927 4.984 11.782 2.274 17.573-2.718 5.798-8.548 9.516-14.96 9.516h-297.29c-9.113 0-16.516-7.403-16.516-16.516v-99.097h-132.129v22.823c10.161 11.629 16.516 26.645 16.516 43.242 0 36.435-29.629 66.065-66.065 66.065s-66.065-29.629-66.065-66.065c0-16.597 6.355-31.613 16.516-43.242v-650.435h-82.581c-9.113 0-16.516-7.403-16.516-16.516v-231.226c0-9.113 7.403-16.516 16.516-16.516h990.968c9.113 0 16.516 7.403 16.516 16.516v99.097c0 9.113-7.403 16.516-16.516 16.516h-49.548v264.258zM548.863 838.444c-5.105-6.129-5.105-15.032 0-21.145l60.008-72.008h-113.387v66.065c0 4.952-2.298 9.266-5.75 12.29l0.121 0.129-99.065 86.677h218.056zM363.355 890.565l71.661-62.694h-71.661zM462.452 794.839v-165.161h-264.258v33.032h99.097v33.032h-99.097v33.032h99.097v33.032h-99.097v33.032zM148.645 926.968c18.218 0 33.032-14.815 33.032-33.032s-14.815-33.032-33.032-33.032-33.032 14.815-33.032 33.032 14.815 33.032 33.032 33.032zM132.129 830.218c5.315-1.387 10.782-2.347 16.516-2.347s11.202 0.96 16.516 2.347v-629.96h-33.032zM990.968-30.968h-957.935v198.194h330.323v-49.548c0-9.113 7.403-16.516 16.516-16.516h346.839v-49.548c0-9.113 7.403-16.516 16.516-16.516h247.742zM858.839 68.129h-99.097v49.548c0 9.113-7.403 16.516-16.516 16.516h-16.516v198.194h132.129zM891.871 68.129v280.774c0 9.113-7.403 16.516-16.516 16.516h-165.161c-9.113 0-16.516-7.403-16.516-16.516v-214.71h-33.032v247.742c0 9.097 7.419 16.516 16.516 16.516h115.613c9.113 0 16.516 7.403 16.516 16.516v165.161c0 9.113-7.403 16.516-16.516 16.516h-231.226v33.032h379.871c27.315 0 49.548-22.234 49.548-49.548v-214.71h-33.032v165.161h-33.032v-462.452zM858.839 695.742c45.532 0 82.581 37.048 82.581 82.581v33.032c0 45.532-37.048 82.581-82.581 82.581s-82.581-37.048-82.581-82.581v-33.032c0-45.532 37.048-82.581 82.581-82.581zM809.29 811.355c0 27.315 22.234 49.548 49.548 49.548s49.548-22.234 49.548-49.548v-33.032c0-27.315-22.234-49.548-49.548-49.548s-49.548 22.234-49.548 49.548z" />
<glyph unicode="&#xe904;" glyph-name="arrow" d="M511.999 156.146c-18.352 0-36.702 7.007-50.694 20.992l-440.297 440.301c-28.009 28.009-28.009 73.42 0 101.417 27.997 27.997 73.399 27.997 101.41 0l389.58-389.603 389.583 389.589c28.009 27.997 73.406 27.997 101.401 0 28.022-27.997 28.022-73.408 0-101.417l-440.29-440.301c-13.999-13.987-32.349-20.979-50.694-20.979z" />
<glyph unicode="&#xe905;" glyph-name="phone" d="M997.13 170.039l-207.261 138.219c-26.302 17.399-61.559 11.674-81.004-13.156l-60.373-77.624c-7.759-10.23-21.863-13.198-33.087-6.963l-11.484 6.331c-38.070 20.751-85.439 46.585-180.879 142.059s-121.326 142.879-142.077 180.879l-6.297 11.484c-6.321 11.222-3.409 25.386 6.825 33.207l77.572 60.355c24.82 19.447 30.553 54.694 13.174 81.004l-138.219 207.261c-17.811 26.792-53.546 34.835-81.12 18.259l-86.669-52.062c-27.232-16.010-47.211-41.938-55.748-72.351-31.209-113.715-7.731-309.97 281.37-599.105 229.974-229.956 401.178-291.797 518.853-291.797 27.082-0.116 54.058 3.407 80.202 10.476 30.419 8.527 56.352 28.508 72.351 55.748l52.114 86.617c16.6 27.58 8.561 63.337-18.243 81.158zM985.97 106.391l-51.994-86.669c-11.488-19.661-30.14-34.117-52.046-40.34-104.978-28.822-288.383-4.949-565.932 272.6s-301.419 460.938-272.598 565.932c6.231 21.933 20.705 40.608 40.39 52.114l86.669 51.994c11.964 7.199 27.474 3.709 35.203-7.917l138.102-207.243c7.547-11.412 5.067-26.708-5.699-35.153l-77.59-60.355c-23.612-18.055-30.355-50.724-15.818-76.653l6.161-11.194c21.809-39.998 48.923-89.757 147.912-188.73 98.989-98.971 148.732-126.087 188.712-147.894l11.21-6.177c25.926-14.536 58.597-7.795 76.653 15.818l60.355 77.59c8.447 10.76 23.736 13.238 35.153 5.699l207.243-138.219c11.634-7.723 15.124-23.241 7.915-35.203zM580.236 789.245c160.138-0.178 289.911-129.953 290.091-290.091 0-9.425 7.639-17.063 17.063-17.063s17.063 7.639 17.063 17.063c-0.198 178.979-145.238 324.022-324.218 324.218-9.425 0-17.063-7.639-17.063-17.063s7.639-17.063 17.063-17.063zM580.236 686.861c103.617-0.122 187.584-84.090 187.706-187.706 0-9.425 7.641-17.063 17.063-17.063 9.425 0 17.063 7.639 17.063 17.063-0.142 122.458-99.377 221.693-221.833 221.833-9.425 0-17.063-7.639-17.063-17.063s7.639-17.063 17.063-17.063zM580.236 584.476c47.097-0.056 85.263-38.222 85.321-85.321 0-9.425 7.641-17.063 17.063-17.063s17.063 7.639 17.063 17.063c-0.076 65.938-53.51 119.374-119.448 119.448-9.425 0-17.063-7.639-17.063-17.063s7.639-17.063 17.063-17.063z" />
<glyph unicode="&#xe906;" glyph-name="quote" d="M0 374.857h219.428l-146.287-292.57h219.428l146.287 292.57v438.857h-438.857zM585.143 813.713v-438.857h219.428l-146.287-292.57h219.428l146.287 292.57v438.857z" />
<glyph unicode="&#xe907;" glyph-name="win" d="M792.774 68.129v181.677c0 45.532-37.048 82.581-82.581 82.581h-16.516v92.79l-31.694 15.839c-61.952 30.984-100.435 93.25-100.435 162.516v6.306l86.613-57.734-66.032 154.056 133.073 88.677h-157.702l-45.5 159.218-45.484-159.218h-157.694l133.048-88.71-66.032-154.065 86.613 57.758v-6.306c0-69.266-38.484-131.532-100.435-162.5l-31.694-15.839v-92.79h-16.516c-45.532 0-82.581-37.048-82.581-82.581v-181.677h-61.46l-44.048-132.129h772.532l-44.048 132.129zM417.911 761.806h73.524l20.565 72.008 20.581-72.008h73.532l-65.145-43.419 33.065-77.161-62.032 41.339-62.032-41.339 33.065 77.161zM495.484 603.532v28.323l16.516 11.016 16.516-11.016v-28.323c0-68.968 32.387-131.984 86.347-172.048h-205.726c53.96 40.048 86.347 103.065 86.347 172.048zM363.355 398.452h297.29v-66.065h-297.29zM264.258 249.806c0 27.315 22.234 49.548 49.548 49.548h396.387c27.315 0 49.548-22.234 49.548-49.548v-181.677h-66.065v165.161c0 18.218-14.815 33.032-33.032 33.032h-297.29c-18.218 0-33.032-14.815-33.032-33.032v-165.161h-66.065zM660.645 68.129h-297.29v165.161h297.29zM171.556-30.968l22.016 66.065h636.839l22.016-66.065zM396.387 200.258h231.226v-33.032h-231.226zM396.387 134.194h33.032v-33.032h-33.032zM462.452 134.194h165.161v-33.032h-165.161zM99.097 960h33.032v-33.032h-33.032zM99.097 893.935h33.032v-33.032h-33.032zM132.129 926.968h33.032v-33.032h-33.032zM66.065 926.968h33.032v-33.032h-33.032zM957.935 695.742h33.032v-33.032h-33.032zM957.935 629.677h33.032v-33.032h-33.032zM990.968 662.71h33.032v-33.032h-33.032zM924.903 662.71h33.032v-33.032h-33.032zM33.032 381.935h33.032v-33.032h-33.032zM33.032 315.871h33.032v-33.032h-33.032zM66.065 348.903h33.032v-33.032h-33.032zM0 348.903h33.032v-33.032h-33.032zM132.129 216.774h33.032v-33.032h-33.032zM132.129 150.71h33.032v-33.032h-33.032zM165.161 183.742h33.032v-33.032h-33.032zM99.097 183.742h33.032v-33.032h-33.032zM924.903 233.29h33.032v-33.032h-33.032zM924.903 167.226h33.032v-33.032h-33.032zM957.935 200.258h33.032v-33.032h-33.032zM891.871 200.258h33.032v-33.032h-33.032zM809.29 893.935h33.032v-33.032h-33.032zM809.29 827.871h33.032v-33.032h-33.032zM842.323 860.903h33.032v-33.032h-33.032zM776.258 860.903h33.032v-33.032h-33.032zM99.097 745.29h33.032v-49.548h-33.032zM33.863 704.589l23.355 23.355 35.032-35.032-23.355-23.363zM16.516 662.71h49.548v-33.032h-49.548zM33.863 587.798l35.032 35.040 23.355-23.355-35.032-35.040zM99.097 596.645h33.032v-49.548h-33.032zM138.968 599.484l23.355 23.355 35.040-35.032-23.363-23.363zM165.161 662.71h49.548v-33.032h-49.548zM138.968 692.911l35.032 35.032 23.355-23.355-35.032-35.032zM875.355 514.065h33.032v-49.548h-33.032zM810.113 473.355l23.355 23.355 35.032-35.032-23.355-23.355zM792.774 431.484h49.548v-33.032h-49.548zM810.113 356.573l35.032 35.032 23.363-23.355-35.040-35.032zM875.355 365.419h33.032v-49.548h-33.032zM915.218 368.25l23.355 23.363 35.040-35.040-23.355-23.355zM941.419 431.484h49.548v-33.032h-49.548zM915.218 461.677l35.032 35.040 23.363-23.355-35.040-35.040z" />
<glyph unicode="&#xe908;" glyph-name="bag" d="M866.034 667.882c-2.381 15.876-15.876 26.989-31.752 26.989h-182.574v74.617c0 76.998-62.71 139.709-139.709 139.709s-139.709-62.71-139.709-139.709v-74.617h-182.574c-15.876 0-29.371-11.113-31.752-26.989l-106.369-642.977c-1.588-9.526 0.794-19.051 7.144-26.195s15.082-11.113 24.608-11.113h857.302c0 0 0 0 0.794 0 18.257 0 32.546 14.288 32.546 32.546 0 3.969-0.794 7.144-1.588 10.319l-106.369 637.42zM437.383 769.488c0 41.278 33.34 74.617 74.617 74.617s74.617-33.34 74.617-74.617v-74.617h-149.234v74.617zM121.451 51.895l96.050 577.885h154.791v-181.78c0-18.257 14.288-32.546 32.546-32.546s32.546 14.288 32.546 32.546v181.78h149.234v-181.78c0-18.257 14.288-32.546 32.546-32.546s32.546 14.288 32.546 32.546v181.78h154.791l96.050-577.885h-781.098z" />
<glyph unicode="&#xe909;" glyph-name="hr" d="M512 693.516l121.589 101.323h159.185v165.161h-396.387v-165.161h115.613zM429.419 827.871v99.097h330.323v-99.097h-138.105l-76.605-63.839v63.839zM462.452 893.935h33.032v-33.032h-33.032zM528.516 893.935h132.129v-33.032h-132.129zM693.677 893.935h33.032v-33.032h-33.032zM840.75-30.968l-13.355 133.702c55.145 8.718 97.508 56.468 97.508 114.040v214.71h-66.065v22.823c0 22.452-12.339 42.613-32.177 52.952 19.726 18.121 32.177 44.032 32.177 72.871v33.032c0 54.653-44.444 99.097-99.097 99.097s-99.097-44.444-99.097-99.097v-33.032c0-42.758 27.266-79.161 65.29-93.032l-88.645-88.645h-92.621c-1.847 27.532-20.758 51.532-47.548 59.194l-67.702 19.323v29.5c20.218 18.153 33.032 44.395 33.032 73.661v33.032c0 54.653-44.444 99.097-99.097 99.097s-99.097-44.444-99.097-99.097v-33.032c0-29.25 12.815-55.492 33.032-73.661v-29.516l-67.702-19.323c-28.21-8.040-47.911-34.169-47.911-63.524v-61.718h-66.065v-99.097h33.032v-264.258h-148.645v-33.032h1024v33.032zM693.677 233.29v75.742l117.032 117.032c8.46 8.46 13.492 19.823 14.621 31.677 0.145-1.153 0.476-2.242 0.476-3.435v-204.5c0-27.315-22.234-49.548-49.548-49.548h-132.129v33.032zM644.129 101.161h84.153l13.21-132.129h-97.363zM761.476 101.161h32.871l13.21-132.129h-32.871zM858.839 249.806v148.645h33.032v-181.677c0-45.532-37.048-82.581-82.581-82.581h-165.161v33.032h132.129c45.532 0 82.581 37.048 82.581 82.581zM693.677 580.129v33.032c0 36.435 29.629 66.065 66.065 66.065s66.065-29.629 66.065-66.065v-33.032c0-36.435-29.629-66.065-66.065-66.065s-66.065 29.629-66.065 66.065zM650.968 365.419l110.194 110.194c3.452 3.452 8.226 5.419 13.097 5.419 10.21 0 18.516-8.306 18.516-18.516 0-4.871-1.968-9.645-5.419-13.097l-117.032-117.032h-174.839c-9.113 0-16.516 7.403-16.516 16.516s7.403 16.516 16.516 16.516zM297.29 613.161c0 36.435 29.629 66.065 66.065 66.065s66.065-29.629 66.065-66.065v-33.032c0-36.435-29.629-66.065-66.065-66.065s-66.065 29.629-66.065 66.065zM363.355 481.032c11.597 0 22.677 2.113 33.032 5.782v-17.742c-4.097-6.323-15.476-21.073-33.032-21.073s-28.935 14.75-33.032 21.073v17.742c10.355-3.669 21.435-5.782 33.032-5.782zM214.71 394.105c0 14.685 9.863 27.734 23.952 31.766l68.040 19.435c9.581-12.484 28.226-30.339 56.653-30.339s47.073 17.855 56.653 30.355l68.040-19.435c12.653-3.621 21.476-14.621 23.242-27.419h-15.806c-27.315 0-49.548-22.234-49.548-49.548 0-5.815 1.185-11.331 3.040-16.516h-234.266zM148.645 299.355h512v-33.032h-512zM181.677 167.226h49.548v33.032h-49.548v33.032h429.419v-33.032h-346.839v-33.032h346.839v-198.194h-39.339l-33.032 66.065h-284.677l-33.032-66.065h-39.339zM534.823-30.968h-276.871l16.516 33.032h243.839z" />
<glyph unicode="&#xe90a;" glyph-name="mail" d="M409.614 294.4v-238.934c0-9.42 7.628-17.066 17.066-17.066s17.066 7.646 17.066 17.066v238.934c0 9.42-7.628 17.066-17.066 17.066-9.436 0-17.066-7.646-17.066-17.066zM17.082 140.8h68.266c9.438 0 17.066 7.646 17.066 17.066s-7.628 17.066-17.066 17.066h-68.266c-9.438 0-17.066-7.646-17.066-17.066s7.628-17.066 17.066-17.066zM17.082 345.6h512c47.052 0 85.334 38.28 85.334 85.334v512c0 9.42-7.628 17.066-17.066 17.066h-0.102c-22.954 0-44.51-8.926-60.74-25.174l-511.268-511.248c-15.89-15.89-24.78-36.882-25.14-59.272-0.052-0.546-0.086-1.076-0.086-1.638 0-9.422 7.63-17.068 17.068-17.068zM49.372 399.446l511.266 511.248c5.632 5.632 12.322 9.814 19.644 12.34v-492.1c0-28.228-22.972-51.2-51.2-51.2h-492.066c2.508 7.338 6.69 14.062 12.356 19.712zM998.858 594.006l-321.176 321.16c-6.672 6.656-17.46 6.656-24.132 0-6.674-6.674-6.674-17.476 0-24.15l321.178-321.144c20.19-20.206 20.19-53.060 0-73.268l-511.268-511.248c-20.19-20.172-53.044-20.206-73.25 0l-321.366 321.35c-6.656 6.656-17.46 6.656-24.132 0-6.674-6.674-6.674-17.476 0-24.132l321.366-321.348c16.76-16.76 38.758-25.14 60.758-25.14 22.016 0 44.014 8.38 60.758 25.14l511.266 511.25c33.5 33.5 33.5 88.010-0.002 121.53zM904.548 516.266c9.438 0 17.066 7.646 17.066 17.066s-7.628 17.066-17.066 17.066h-238.934c-9.438 0-17.066-7.646-17.066-17.066s7.628-17.066 17.066-17.066h238.934zM256.014-29.866h-238.932c-9.438 0-17.066-7.646-17.066-17.066s7.628-17.068 17.066-17.068h238.934c9.438 0 17.066 7.646 17.066 17.066s-7.63 17.068-17.068 17.068zM17.082 38.4h136.534c9.438 0 17.066 7.646 17.066 17.066s-7.628 17.066-17.066 17.066h-136.534c-9.438 0-17.066-7.646-17.066-17.066-0.002-9.42 7.628-17.066 17.066-17.066z" />
<glyph unicode="&#xe90b;" glyph-name="pin" d="M497.1 930.212c-151.85 0-275.395-123.546-275.395-275.395 0-81.442 42.336-143.316 91.354-214.963 69.45-101.487 155.861-227.793 155.861-469.641h56.361c0 243.196 86.52 369.191 156.038 470.438 48.924 71.253 91.185 132.796 91.185 214.167 0 151.85-123.542 275.395-275.403 275.395zM497.1 531.549c-67.966 0-123.26 55.298-123.26 123.268 0 67.966 55.294 123.26 123.26 123.26 67.97 0 123.271-55.294 123.271-123.26 0-67.97-55.301-123.268-123.271-123.268zM497.1 721.72c-36.886 0-66.9-30.017-66.9-66.903 0-36.901 30.013-66.911 66.9-66.911 36.901 0 66.911 30.009 66.911 66.911 0 36.886-30.009 66.903-66.911 66.903z" />
<glyph unicode="&#xe90c;" glyph-name="concept" d="M984.999 755.235h-102.758v141.062c0 35.125-28.516 63.703-63.57 63.703h-70.203c-35.055 0-63.57-28.578-63.57-63.703v-141.070h-644.897c-11.047 0-20-8.953-20-20v-182.5c0-11.039 8.953-20 20-20s20 8.961 20 20v162.5h624.897v-484.999h-352.382c-5.305 0-10.391-2.109-14.141-5.859l-153.375-153.367v139.226c0 11.047-8.953 20-20 20h-85v162.5c0 11.047-8.953 20-20 20s-20-8.953-20-20v-182.5c0-11.039 8.953-20 20-20h85v-167.507c0-8.094 4.875-15.383 12.344-18.477 2.477-1.031 5.078-1.523 7.648-1.523 5.211 0 10.328 2.031 14.148 5.852l181.656 181.656h344.101v-98.101c0-0.812 0.062-1.594 0.156-2.367 0.023-0.211 0.055-0.406 0.094-0.617 0.094-0.609 0.203-1.211 0.352-1.805 0.055-0.195 0.102-0.391 0.156-0.586 0.203-0.727 0.437-1.445 0.719-2.133 0.016-0.047 0.023-0.086 0.047-0.125 0.312-0.758 0.68-1.492 1.086-2.203 0.023-0.055 0.047-0.109 0.070-0.156l78.672-136.14c3.578-6.187 10.172-9.992 17.32-9.992 7.141 0 13.742 3.805 17.312 9.992l78.672 136.14c0.031 0.047 0.047 0.102 0.078 0.156 0.398 0.703 0.766 1.437 1.086 2.203 0.016 0.039 0.023 0.086 0.039 0.125 0.281 0.695 0.516 1.406 0.719 2.133 0.055 0.195 0.102 0.391 0.156 0.586 0.141 0.594 0.258 1.195 0.352 1.805 0.031 0.203 0.070 0.406 0.094 0.617 0.094 0.773 0.156 1.555 0.156 2.359 0 0 0 0.008 0 0.016v98.094h102.765c11.039 0 20 8.961 20 20v182.5c0 11.047-8.961 20-20 20-11.047 0-20-8.953-20-20v-162.5h-82.765v485.007h82.765v-162.507c0-11.039 8.953-20 20-20 11.039 0 20 8.961 20 20v182.507c0 11.047-8.953 20-20 20zM724.898 804.024h38.672v-691.881h-38.672zM783.57-4.029l-44.016 76.172h88.031zM842.242 112.142h-38.672v691.881h38.672zM842.242 844.024h-117.344v52.273c0 13.070 10.57 23.703 23.57 23.703h70.203c12.992 0 23.57-10.633 23.57-23.703zM152.899 335.954h439.101c11.047 0 20 8.961 20 20 0 11.047-8.953 20-20 20h-439.101c-11.047 0-20-8.953-20-20 0-11.039 8.953-20 20-20zM152.899 569.509h439.101c11.047 0 20 8.953 20 20 0 11.039-8.953 20-20 20h-439.101c-11.047 0-20-8.961-20-20 0-11.047 8.953-20 20-20zM152.899 452.728h439.101c11.047 0 20 8.961 20 20 0 11.047-8.953 20-20 20h-439.101c-11.047 0-20-8.953-20-20 0-11.039 8.953-20 20-20zM40.001 452.728c11.016 0 20 8.984 20 20s-8.984 20-20 20-20-8.984-20-20c0-11.016 8.984-20 20-20zM984.999 492.727c-11.016 0-20-8.984-20-20s8.984-20 20-20 20 8.984 20 20c0 11.016-8.984 20-20 20z" />
<glyph unicode="&#xe90d;" glyph-name="search" d="M990 27.6l-235.6 235.6c58.4 71.2 93.6 162.4 93.6 261.8 0 228-185 413-413 413-228.2 0-413-185-413-413s184.8-413 413-413c99.4 0 190.4 35 261.6 93.4l235.6-235.4c16-16 41.8-16 57.8 0 16 15.8 16 41.8 0 57.6zM435 194.2c-182.6 0-331 148.4-331 330.8s148.4 331 331 331c182.4 0 331-148.6 331-331s-148.6-330.8-331-330.8z" />
<glyph unicode="&#xe90e;" glyph-name="wallet" d="M957.935 563.613c0 109.287-88.906 198.194-198.194 198.194s-198.194-88.906-198.194-198.194c0-109.287 88.906-198.194 198.194-198.194s198.194 88.906 198.194 198.194zM594.581 563.613c0 91.070 74.091 165.161 165.161 165.161s165.161-74.091 165.161-165.161-74.091-165.161-165.161-165.161-165.161 74.091-165.161 165.161zM776.258 431.484v33.875c27.945 4.046 49.548 27.929 49.548 56.964 0 31.876-25.93 57.806-57.806 57.806h-16.516c-13.659 0-24.774 11.115-24.774 24.774s11.115 24.774 24.774 24.774h16.516c13.659 0 24.774-11.115 24.774-24.774v-8.258h33.032v8.258c0 29.035-21.603 52.918-49.548 56.964v33.875h-33.032v-33.875c-27.945-4.046-49.548-27.929-49.548-56.964 0-31.876 25.93-57.806 57.806-57.806h16.516c13.659 0 24.774-11.115 24.774-24.774s-11.115-24.774-24.774-24.774h-16.516c-13.659 0-24.774 11.115-24.774 24.774v8.258h-33.032v-8.258c0-29.035 21.603-52.918 49.548-56.964v-33.875h33.032zM264.258 266.323c27.318 0 49.548 22.231 49.548 49.548s-22.231 49.548-49.548 49.548-49.548-22.231-49.548-49.548 22.231-49.548 49.548-49.548zM264.258 332.387c9.1 0 16.516-7.399 16.516-16.516s-7.416-16.516-16.516-16.516-16.516 7.399-16.516 16.516c0 9.117 7.416 16.516 16.516 16.516zM561.548 266.323h429.419v-49.548c0-27.318-22.231-49.548-49.548-49.548h-363.355c-27.318 0-49.548 22.231-49.548 49.548v231.226c0 45.535-37.046 82.581-82.581 82.581h-363.355c-45.535 0-82.581-37.046-82.581-82.581v-429.419c0-45.535 37.046-82.581 82.581-82.581h495.484c45.535 0 82.581 37.046 82.581 82.581v115.613h280.774c45.535 0 82.581 37.046 82.581 82.581v82.581h-462.452v-33.032zM198.194 497.548h132.129v-198.194c0-36.435-29.63-66.065-66.065-66.065s-66.065 29.63-66.065 66.065v198.194zM82.581-30.968c-27.318 0-49.548 22.231-49.548 49.548v429.419c0 27.318 22.231 49.548 49.548 49.548h82.581v-198.194c0-54.652 44.445-99.097 99.097-99.097s99.097 44.445 99.097 99.097v198.194h82.581c27.318 0 49.548-22.231 49.548-49.548v-429.419c0-18.581 6.177-35.741 16.549-49.548h-429.452zM627.613 18.581c0-27.318-22.231-49.548-49.548-49.548s-49.548 22.231-49.548 49.548v132.558c9.645-7.3 20.761-12.767 33.032-15.261v-133.814h33.032v132.129h33.032v-115.613zM941.419 960h-363.355c-45.535 0-82.581-37.046-82.581-82.581v-330.323h33.032v280.774h462.452v-495.484h33.032v545.032c0 45.535-37.046 82.581-82.581 82.581zM990.968 860.903h-462.452v16.516c0 27.318 22.231 49.548 49.548 49.548h363.355c27.318 0 49.548-22.231 49.548-49.548v-16.516zM693.677 233.29h132.129v-33.032h-132.129v33.032zM264.258 563.613c109.287 0 198.194 88.906 198.194 198.194s-88.906 198.194-198.194 198.194c-109.287 0-198.194-88.906-198.194-198.194s88.906-198.194 198.194-198.194zM264.258 926.968c91.070 0 165.161-74.091 165.161-165.161s-74.091-165.161-165.161-165.161-165.161 74.091-165.161 165.161 74.091 165.161 165.161 165.161zM247.742 663.552v-33.875h33.032v33.875c27.945 4.046 49.548 27.929 49.548 56.964 0 31.876-25.93 57.806-57.806 57.806h-16.516c-13.659 0-24.774 11.115-24.774 24.774s11.115 24.774 24.774 24.774h16.516c13.659 0 24.774-11.115 24.774-24.774v-8.258h33.032v8.258c0 29.035-21.603 52.918-49.548 56.964v33.875h-33.032v-33.875c-27.945-4.046-49.548-27.929-49.548-56.964 0-31.876 25.93-57.806 57.806-57.806h16.516c13.659 0 24.774-11.115 24.774-24.774s-11.115-24.774-24.774-24.774h-16.516c-13.659 0-24.774 11.115-24.774 24.774v8.258h-33.032v-8.258c0-29.035 21.603-52.918 49.548-56.964z" />
<glyph unicode="&#xe90f;" glyph-name="guarantee-certificate" d="M82.581 860.903h66.065v-313.806c0-6.952 4.363-13.161 10.887-15.524 6.54-2.363 13.855-0.379 18.315 4.952l69.895 83.871 69.879-83.871c3.218-3.847 7.895-5.944 12.702-5.944 1.879 0 3.782 0.331 5.629 0.992 6.524 2.363 10.887 8.573 10.887 15.524v313.806h231.226v-115.613c0-9.137 7.379-16.516 16.516-16.516h115.613v-132.129h33.032v148.645c0 4.573-1.863 8.702-4.855 11.694l-132.081 132.081c-3.008 3.008-7.137 4.871-11.71 4.871h-445.935v33.032h627.613v-363.355h33.032v379.871c0 9.137-7.379 16.516-16.516 16.516h-660.645c-9.137 0-16.516-7.379-16.516-16.516v-49.548h-49.548c-9.137 0-16.516-7.379-16.516-16.516v-924.903c0-9.137 7.379-16.516 16.516-16.516h561.548v33.032h-545.032zM611.097 837.548l75.742-75.742h-75.742zM260.444 656.782c-3.153 3.75-7.798 5.927-12.702 5.927s-9.548-2.177-12.702-5.927l-53.363-64.065v202.121h132.129v-202.121zM313.806 860.903v-33.032h-132.129v33.032zM957.935 464.516h-24.871c-73.75 0-143.113 32.484-190.315 89.121l-3.339 4.016c-6.258 7.548-19.129 7.548-25.387 0l-3.339-4c-47.218-56.653-116.581-89.137-190.331-89.137h-24.871c-9.137 0-16.516-7.379-16.516-16.516v-267.492c0-65.040 35.081-125.492 91.548-157.75l148-84.581c2.532-1.452 5.371-2.177 8.194-2.177s5.661 0.726 8.194 2.177l148 84.581c56.468 32.258 91.548 92.71 91.548 157.75v267.492c0 9.137-7.379 16.516-16.516 16.516zM941.419 180.508c0-53.218-28.685-102.669-74.903-129.056l-139.806-79.927-139.806 79.903c-46.218 26.411-74.903 75.863-74.903 129.081v250.976h8.355c78.815 0 153.242 32.75 206.355 90.363 53.097-57.613 127.54-90.363 206.355-90.363h8.355zM115.613 167.226h330.323v-33.032h-330.323zM115.613 101.161h330.323v-33.032h-330.323zM115.613 497.548h330.323v-33.032h-330.323zM115.613 431.484h330.323v-33.032h-330.323zM115.613 35.097h330.323v-33.032h-330.323zM800.452 381.935c-20.016 0-38.831-7.798-52.968-21.935l-20.774-20.774-20.774 20.774c-14.137 14.137-32.952 21.935-52.968 21.935-41.306 0-74.903-33.597-74.903-74.903v-1.992c0-18.355 6.702-36.040 18.927-49.766l117.379-132.048c3.121-3.532 7.629-5.548 12.339-5.548s9.218 2.016 12.339 5.548l117.395 132.048c12.21 13.726 18.911 31.395 18.911 49.766v1.992c0 41.306-33.597 74.903-74.903 74.903zM842.323 305.040c0-10.258-3.766-20.153-10.573-27.831l-105.040-118.161-105.024 118.161c-6.823 7.677-10.589 17.573-10.589 27.831v1.992c0 23.073 18.798 41.871 41.871 41.871 11.194 0 21.702-4.363 29.613-12.258l32.452-32.452c6.46-6.46 16.895-6.46 23.355 0l32.452 32.452c7.895 7.895 18.419 12.258 29.613 12.258 23.073 0 41.871-18.798 41.871-41.871zM710.194 84.645h33.032v-33.032h-33.032z" />
<glyph unicode="&#xe910;" glyph-name="next" d="M689.55 797.181c-13.95 14.438-37.168 14.438-51.606 0-13.95-13.95-13.95-37.168 0-51.086l261.674-261.674h-863.49c-20.129-0.033-36.128-16.032-36.128-36.16s15.999-36.648 36.128-36.648h863.49l-261.674-261.187c-13.95-14.438-13.95-37.689 0-51.606 14.438-14.438 37.689-14.438 51.606 0l323.622 323.622c14.438 13.95 14.438 37.168 0 51.086l-323.622 323.654z" />
<glyph unicode="&#xe911;" glyph-name="scheme" d="M999.994 960h-975.988c-13.258 0-24.004-10.746-24.004-24.004v-975.988c0-13.258 10.746-24.004 24.004-24.004h975.988c13.258 0 24.004 10.746 24.004 24.004v975.988c0.002 13.258-10.746 24.004-24.004 24.004zM48.010 911.99h146.326v-172.732c0-41.032-33.384-74.416-74.416-74.416h-71.91v247.148zM48.010 529.621h282.753v-70.816h-282.753v70.816zM380.375-15.988h-79.616v120.24c0 13.258-10.746 24.004-24.004 24.004s-24.004-10.746-24.004-24.004v-120.24h-79.618v247.946h207.242v-247.946zM534.467 118.42c0-0.044-0.008-0.086-0.008-0.13l0.002-134.278h-106.078v271.949c0 13.258-10.748 24.004-24.004 24.004h-255.25c-13.258 0-24.004-10.746-24.004-24.004v-271.951h-77.116v426.783h306.757c13.258 0 24.004 10.746 24.004 24.004v94.824h84.596c-51.408-31.904-85.728-88.82-85.728-153.62 0-13.258 10.748-24.004 24.004-24.004h132.822v-233.578zM534.467 400.005h-106.64c9.912 53.978 52.616 96.642 106.64 106.536v-106.536zM534.469 577.629h-486.459v39.208h71.912c67.506 0 122.424 54.918 122.424 122.424v172.73h202.704c-41.074-33.158-67.408-83.856-67.408-140.61 0-13.258 10.746-24.004 24.004-24.004h132.822v-169.748zM534.469 795.384h-106.642c9.912 53.974 52.616 96.644 106.642 106.536v-106.536zM582.473-15.988v108.070c54.058-10.038 96.774-53.334 106.58-108.070h-106.58zM737.571-15.988c-10.654 81.27-74.554 145.786-155.098 156.624v235.324c0 0.014 0.002 0.026 0.002 0.040v153.62h224.556c13.258 0 24.004 10.746 24.004 24.004s-10.746 24.004-24.004 24.004h-224.554v193.742c0 0.004 0 0.008 0 0.012v140.61h393.511v-927.978h-238.418zM909.784 558.327c-0.312 1.512-0.768 3.024-1.368 4.488-0.6 1.44-1.344 2.832-2.208 4.128-0.864 1.32-1.872 2.544-2.976 3.648s-2.328 2.112-3.648 3c-1.296 0.864-2.712 1.584-4.152 2.184s-2.952 1.080-4.488 1.368c-3.096 0.624-6.29 0.624-9.386 0-1.536-0.288-3.048-0.768-4.488-1.368s-2.832-1.32-4.152-2.184c-1.296-0.888-2.52-1.896-3.648-3-1.104-1.104-2.088-2.328-2.976-3.648-0.864-1.296-1.608-2.688-2.208-4.128-0.6-1.464-1.056-2.976-1.368-4.488-0.312-1.56-0.456-3.144-0.456-4.704s0.144-3.144 0.456-4.682c0.312-1.536 0.768-3.048 1.368-4.488 0.6-1.464 1.344-2.856 2.208-4.152 0.888-1.32 1.872-2.544 2.976-3.648 1.128-1.104 2.352-2.112 3.648-2.976 1.32-0.864 2.712-1.608 4.152-2.208s2.952-1.080 4.488-1.368c1.56-0.312 3.12-0.48 4.704-0.48 1.56 0 3.12 0.168 4.682 0.48 1.536 0.288 3.048 0.768 4.488 1.368s2.856 1.344 4.152 2.208c1.32 0.864 2.544 1.872 3.648 2.976s2.112 2.328 2.976 3.648c0.864 1.296 1.608 2.688 2.208 4.152 0.6 1.44 1.056 2.952 1.368 4.488s0.48 3.12 0.48 4.682-0.168 3.144-0.48 4.704zM776.052 887.29c-76.77 0-139.228-62.458-139.228-139.228s62.458-139.228 139.228-139.228c76.77 0 139.228 62.458 139.228 139.228 0.002 76.768-62.458 139.228-139.228 139.228zM776.052 656.843c-50.298 0-91.218 40.922-91.218 91.218 0 50.298 40.922 91.218 91.218 91.218 50.298 0 91.218-40.922 91.218-91.218 0.002-50.296-40.92-91.218-91.218-91.218zM300.277 188.15c-0.288 1.536-0.768 3.048-1.368 4.49-0.6 1.464-1.344 2.856-2.208 4.152-0.864 1.32-1.872 2.544-2.976 3.648-5.57 5.57-13.874 8.138-21.652 6.554-1.536-0.288-3.048-0.768-4.488-1.368-1.464-0.6-2.856-1.344-4.152-2.208-1.32-0.864-2.544-1.872-3.648-2.976s-2.112-2.328-2.976-3.648c-0.864-1.296-1.608-2.688-2.208-4.152-0.6-1.44-1.080-2.952-1.368-4.488-0.312-1.536-0.48-3.12-0.48-4.682 0-1.56 0.168-3.144 0.48-4.682 0.288-1.536 0.768-3.048 1.368-4.488 0.6-1.464 1.344-2.856 2.208-4.152 0.864-1.32 1.872-2.544 2.976-3.648s2.328-2.112 3.648-2.976c1.296-0.864 2.688-1.608 4.152-2.208 1.44-0.6 2.952-1.080 4.488-1.368 1.536-0.312 3.12-0.48 4.68-0.48 6.314 0 12.506 2.568 16.972 7.034 1.104 1.104 2.112 2.328 2.976 3.648 0.864 1.296 1.608 2.688 2.208 4.152 0.6 1.44 1.080 2.952 1.368 4.488 0.312 1.536 0.48 3.12 0.48 4.68s-0.168 3.14-0.48 4.678z" />
<glyph unicode="&#xe912;" glyph-name="back" d="M311.568 448.027l462.455 462.455c11.374 11.374 11.374 29.614 0 40.988s-29.614 11.374-40.988 0l-483.056-483.056c-11.374-11.374-11.374-29.614 0-40.988l483.056-482.842c5.58-5.58 13.090-8.584 20.387-8.584s14.807 2.79 20.387 8.584c11.374 11.374 11.374 29.614 0 40.988l-462.24 462.455z" />
<glyph unicode="&#xe913;" glyph-name="cupboard" d="M1024 599.002v191.594c0 47.628-38.968 85.514-86.596 85.514s-86.596-38.968-86.596-86.596v-189.429c0-41.133 28.144-74.689 67.112-83.349v-80.101h-321.488c0 2.165 1.082 4.33 1.082 6.495v55.205c0 2.165 0 4.33-1.082 6.495h192.677c24.896 0 45.463 20.567 45.463 45.463v313.911c0 24.896-20.567 45.463-45.463 45.463h-548.803c-24.896 0-45.463-20.567-45.463-45.463v-316.076c0-24.896 20.567-45.463 45.463-45.463h192.677c0-2.165-1.082-4.33-1.082-6.495v-55.205c0-2.165 0-4.33 1.082-6.495h-325.818v73.607c37.886 8.66 67.112 43.298 67.112 83.349v192.677c0 47.628-38.968 86.596-86.596 86.596s-86.596-38.968-86.596-86.596v-189.429c0-41.133 28.144-74.689 67.112-83.349v-74.689h-25.979c-23.814 0-42.216-19.484-42.216-42.216v-365.869c0-23.814 19.484-42.216 42.216-42.216h938.486c23.814 0 42.216 19.484 42.216 42.216v364.786c0 23.814-19.484 42.216-42.216 42.216h-23.814v80.101c37.886 8.66 67.112 43.298 67.112 83.349zM889.776 789.514c0 27.061 21.649 48.71 47.628 48.71s47.628-21.649 47.628-47.628v-40.051h-95.256v38.968zM240.304 541.632c-3.247 1.082-6.495 4.33-6.495 7.577v314.994c0 3.247 3.247 6.495 6.495 6.495h548.803c3.247 0 6.495-3.247 6.495-6.495v-316.076c0-3.247-3.247-6.495-6.495-6.495h-548.803zM558.545 498.334v-55.205c0-3.247-3.247-6.495-6.495-6.495h-73.607c-4.33 0-6.495 2.165-6.495 6.495v55.205c0 3.247 3.247 6.495 6.495 6.495h73.607c3.247 0 6.495-3.247 6.495-6.495zM40.051 784.101c0 25.979 21.649 47.628 47.628 47.628s47.628-21.649 47.628-47.628v-32.474h-95.256v32.474zM40.051 593.59v119.070h95.256v-117.987c0-25.979-21.649-47.628-47.628-47.628-25.979-1.082-47.628 20.567-47.628 46.545zM985.032 28.55c0-3.247-2.165-4.33-4.33-4.33h-937.404c-2.165 0-4.33 2.165-4.33 4.33v163.45h946.063v-163.45zM980.702 397.666c2.165 0 4.33-2.165 4.33-4.33v-163.45h-946.063v163.45c0 2.165 2.165 4.33 4.33 4.33h937.404zM937.404 552.457c-25.979 0-47.628 21.649-47.628 47.628v112.575h95.256v-111.493c0-27.061-21.649-48.71-47.628-48.71zM108.245 668.279c0-11.359-9.208-20.567-20.567-20.567s-20.567 9.208-20.567 20.567c0 11.359 9.208 20.567 20.567 20.567s20.567-9.208 20.567-20.567zM108.245 593.59c0-11.359-9.208-20.567-20.567-20.567s-20.567 9.208-20.567 20.567c0 11.359 9.208 20.567 20.567 20.567s20.567-9.208 20.567-20.567zM957.97 668.279c0-11.359-9.208-20.567-20.567-20.567s-20.567 9.208-20.567 20.567c0 11.359 9.208 20.567 20.567 20.567s20.567-9.208 20.567-20.567zM957.97 593.59c0-11.359-9.208-20.567-20.567-20.567s-20.567 9.208-20.567 20.567c0 11.359 9.208 20.567 20.567 20.567s20.567-9.208 20.567-20.567zM573.7 330.554h-125.564c-10.825 0-19.484-8.66-19.484-19.484s8.66-19.484 19.484-19.484h125.564c10.825 0 19.484 8.66 19.484 19.484s-8.66 19.484-19.484 19.484zM573.7 123.805h-125.564c-10.825 0-19.484-8.66-19.484-19.484s8.66-19.484 19.484-19.484h125.564c10.825 0 19.484 8.66 19.484 19.484s-8.66 19.484-19.484 19.484z" />
<glyph unicode="&#xe914;" glyph-name="support" d="M225.334 88h-61.334c-11.044 0-20-8.956-20-20s8.956-20 20-20h61.334c11.044 0 20 8.956 20 20s-8.956 20-20 20zM311.18 82.14c-3.722 3.72-8.882 5.86-14.14 5.86-5.28 0-10.42-2.138-14.138-5.86-3.72-3.72-5.862-8.88-5.862-14.14s2.14-10.42 5.862-14.138c3.718-3.72 8.86-5.862 14.138-5.862 5.26 0 10.42 2.14 14.14 5.862 3.72 3.718 5.86 8.878 5.86 14.138s-2.138 10.42-5.86 14.14zM388.18 590c-3.72 3.72-8.86 5.862-14.14 5.862-5.26 0-10.42-2.14-14.138-5.862-3.72-3.718-5.862-8.878-5.862-14.138 0-5.262 2.14-10.422 5.862-14.14 3.736-3.722 8.878-5.86 14.138-5.86 5.282 0 10.42 2.138 14.14 5.86 3.74 3.718 5.878 8.878 5.878 14.14 0 5.26-2.138 10.42-5.878 14.138zM545.298 590c-3.718 3.72-8.878 5.862-14.138 5.862s-10.42-2.14-14.14-5.862c-3.72-3.718-5.86-8.878-5.86-14.138 0-5.262 2.138-10.422 5.86-14.14 3.72-3.722 8.88-5.86 14.14-5.86s10.42 2.138 14.138 5.86c3.72 3.718 5.862 8.878 5.862 14.14 0 5.26-2.14 10.42-5.862 14.138zM933 320h-410c-50.178 0-91-40.822-91-91v-253h-392v179.1c0 65.858 44.194 124.602 107.47 142.856l157.636 45.472-22.626-101.058c-1.778-7.942 1.434-16.17 8.124-20.806 3.424-2.374 7.408-3.562 11.394-3.562 3.804 0 7.614 1.084 10.94 3.256l61.768 40.356c9.246 6.042 11.846 18.436 5.804 27.684-6.042 9.246-18.432 11.844-27.684 5.804l-20.556-13.432 18.4 82.182c31.716-16.808 66.822-25.224 101.936-25.224 37.136 0 74.276 9.4 107.382 28.198 43.454 24.606 76.032 63.542 93.17 108.922h37.364c37.182 0 67.43 30.248 67.43 67.43v85.742c0 19.734-8.522 37.514-22.076 49.856-1.316 155.294-127.94 281.224-283.42 281.224-155.216 0-281.67-125.5-283.416-280.426-14.082-12.368-22.994-30.484-22.994-50.654v-85.744c0-37.182 30.25-67.432 67.432-67.432h38.57c12.854-34.022 34.41-64.416 62.74-87.896l-178.402-51.462c-39.63-11.432-73.686-34.896-98.482-67.858-24.796-32.958-37.904-72.182-37.904-113.428v-199.1c0-11.044 8.956-20 20-20h984c11.044 0 20 8.956 20 20v273c0 50.178-40.822 91-91 91zM717.956 628.92v-85.744c0-15.126-12.304-27.43-27.43-27.43h-26.614c1.852 11.204 2.818 22.63 2.818 34.188v106.418h23.796c15.126 0 27.43-12.306 27.43-27.432zM213.476 515.746c-15.126 0-27.432 12.306-27.432 27.432v85.744c0 15.126 12.306 27.43 27.432 27.43h25.016c-0.002-0.118-0.018-0.232-0.018-0.352v-106.066c0-11.558 0.966-22.984 2.818-34.188h-27.816zM239.278 696.352h-25.8c-1.228 0-2.448-0.038-3.662-0.102 10.158 125.076 115.098 223.75 242.64 223.75 127.566 0 232.518-98.71 242.644-223.82-1.512 0.102-3.034 0.172-4.574 0.172h-24.392c-0.212 0.868-0.478 1.714-0.798 2.534-10.232 108.554-101.808 193.78-212.916 193.78-111.97 0-204.11-86.554-213.142-196.314zM278.538 678.63c0 95.962 78.002 174.036 173.88 174.036 75.948 0 140.67-48.994 164.298-117.060l-48.364-33.338c-24.924-17.184-54.104-26.268-84.384-26.268h-205.622c0.114 0.864 0.192 1.736 0.192 2.63zM278.474 549.934v86.066h205.494c38.424 0 75.456 11.528 107.090 33.334l34.626 23.868c0.4-4.806 0.616-9.664 0.616-14.572 0-1.414 0.15-2.79 0.43-4.122v-124.576c0-25.982-5.974-51.154-16.9-73.846h-80.672c-6.83 21.86-27.264 37.772-51.344 37.772h-25.558c-29.652 0-53.778-24.126-53.778-53.778s24.126-53.778 53.778-53.778h25.558c21.034 0 39.272 12.144 48.106 29.784h57.148c-12.146-13.544-26.528-25.252-42.804-34.468-54-30.656-121.112-30.694-175.284-0.018l-0.050 0.028c-53.328 30.198-86.456 87.026-86.456 148.306zM491.588 460.082c0-7.598-6.18-13.778-13.778-13.778h-25.558c-7.598 0-13.778 6.18-13.778 13.778s6.18 13.778 13.778 13.778h25.558c7.598 0 13.778-6.18 13.778-13.778zM984-24h-48v87.334c0 11.044-8.956 20-20 20s-20-8.956-20-20v-87.334h-424v253c0 28.122 22.878 51 51 51h410c28.122 0 51-22.878 51-51v-253zM728 195c-36.944 0-67-30.056-67-67s30.056-67 67-67 67 30.056 67 67-30.056 67-67 67zM728 101c-14.888 0-27 12.112-27 27s12.112 27 27 27c14.888 0 27-12.112 27-27s-12.112-27-27-27zM1018.142 521.78c-31.656 31.654-73.742 49.088-118.51 49.088-44.766 0-86.854-17.434-118.508-49.088-7.81-7.81-7.81-20.474 0-28.286 3.908-3.904 9.024-5.858 14.144-5.858s10.236 1.954 14.142 5.858c24.1 24.1 56.14 37.374 90.222 37.374s66.126-13.274 90.224-37.374c7.812-7.808 20.472-7.808 28.286 0 7.81 7.81 7.81 20.474 0 28.286zM961.91 465.548c-34.342 34.338-90.214 34.334-124.552 0-7.81-7.81-7.81-20.472 0-28.286 7.812-7.806 20.472-7.81 28.286 0 18.742 18.744 49.24 18.74 67.982 0 3.906-3.904 9.022-5.858 14.142-5.858s10.238 1.954 14.142 5.858c7.81 7.812 7.81 20.474 0 28.286zM913.778 412.8c-3.72 3.74-8.878 5.86-14.14 5.86-5.278 0-10.42-2.12-14.138-5.86-3.74-3.72-5.862-8.862-5.862-14.14 0-5.26 2.122-10.4 5.862-14.14 3.718-3.718 8.86-5.86 14.138-5.86 5.262 0 10.42 2.14 14.14 5.86 3.72 3.74 5.86 8.88 5.86 14.14 0 5.28-2.138 10.42-5.86 14.14zM930.138 154.14c-3.718 3.722-8.878 5.86-14.138 5.86s-10.42-2.138-14.14-5.86c-3.72-3.722-5.86-8.88-5.86-14.14s2.138-10.42 5.86-14.138c3.72-3.72 8.88-5.862 14.14-5.862s10.42 2.14 14.138 5.862c3.722 3.718 5.862 8.878 5.862 14.138s-2.14 10.42-5.862 14.14z" />
<glyph unicode="&#xe915;" glyph-name="architecture-and-city" d="M464 288h32v-32h-32v32zM984.096 653.792l-120.096 70.4v107.808h16c8.837 0 16 7.163 16 16v0 64c0 8.837-7.163 16-16 16v0h-160c-8.837 0-16-7.163-16-16v0-64c0-8.837 7.163-16 16-16v0h16v-32.768l-215.904 126.56c-2.318 1.382-5.111 2.199-8.096 2.199s-5.778-0.817-8.17-2.24l0.074 0.041-464-272c-4.76-2.829-7.901-7.943-7.904-13.792v0-80c0.005-8.833 7.166-15.991 16-15.991 2.985 0 5.778 0.817 8.17 2.24l-0.074-0.041 39.904 23.392v-418.496c-19.204-11.188-31.924-31.652-32-55.093v-0.011c0-0.006 0-0.013 0-0.021 0-2.972 0.209-5.895 0.614-8.756l-0.038 0.329c-19.586-11.161-32.577-31.904-32.577-55.68 0-35.276 28.596-63.872 63.872-63.872 0.045 0 0.091 0 0.136 0h831.993c0.038 0 0.084 0 0.129 0 35.276 0 63.872 28.596 63.872 63.872 0 23.777-12.992 44.519-32.263 55.515l-0.314 0.165c0.367 2.532 0.576 5.455 0.576 8.427 0 0.007 0 0.015 0 0.022v-0.001c-0.077 23.452-12.796 43.916-31.697 54.941l-0.303 0.163v418.496l39.904-23.392c2.318-1.382 5.111-2.199 8.096-2.199 8.834 0 15.995 7.159 16 15.991v0 80c-0.003 5.849-3.144 10.963-7.83 13.751l-0.074 0.041zM736 896h128v-32h-128zM768 832h64v-89.040l-64 37.52zM96 0c-0.013 0-0.028 0-0.043 0-17.62 0-31.904 14.284-31.904 31.904 0 14.682 9.918 27.048 23.419 30.763l0.224 0.053c6.859 1.906 11.81 8.096 11.81 15.442 0 2.15-0.424 4.2-1.193 6.073l0.039-0.107c-1.479 3.546-2.338 7.665-2.338 11.986 0 17.611 14.277 31.888 31.888 31.888 14.699 0 27.075-9.945 30.766-23.474l0.052-0.224c1.906-6.859 8.096-11.81 15.442-11.81 2.15 0 4.2 0.424 6.073 1.193l-0.107-0.039c3.445 1.374 7.437 2.171 11.616 2.171 14.684 0 27.070-9.841 30.921-23.288l0.056-0.227c1.906-6.859 8.096-11.81 15.442-11.81 2.15 0 4.2 0.424 6.073 1.193l-0.107-0.039c3.562 1.488 7.7 2.352 12.040 2.352 17.673 0 32-14.327 32-32s-14.327-32-32-32c-0.059 0-0.118 0-0.177 0h0.009zM320 32h384c0.072-11.819 3.369-22.853 9.055-32.285l-0.159 0.285h-401.792c5.527 9.147 8.824 20.181 8.896 31.98v0.020zM592 128h-160v288h160zM624 96v-32h-224v32zM936.304 62.72c13.726-3.768 23.643-16.134 23.643-30.816 0-17.62-14.284-31.904-31.904-31.904-0.015 0-0.030 0-0.046 0h-159.998c-0.050 0-0.109 0-0.168 0-17.673 0-32 14.327-32 32s14.327 32 32 32c4.34 0 8.479-0.864 12.252-2.43l-0.212 0.078c1.766-0.73 3.817-1.154 5.966-1.154 7.346 0 13.536 4.951 15.415 11.698l0.027 0.113c3.899 13.676 16.283 23.52 30.966 23.52 4.183 0 8.179-0.799 11.844-2.252l-0.217 0.076c1.766-0.73 3.817-1.154 5.966-1.154 7.346 0 13.536 4.951 15.415 11.698l0.027 0.113c3.743 13.752 16.119 23.698 30.818 23.698 17.611 0 31.888-14.277 31.888-31.888 0-4.32-0.859-8.44-2.416-12.197l0.078 0.211c-0.73-1.766-1.154-3.817-1.154-5.966 0-7.346 4.951-13.536 11.698-15.415l0.113-0.027zM896 160c-23.719-0.077-44.392-13.046-55.387-32.263l-0.165-0.313c-2.452 0.332-5.286 0.521-8.165 0.521-23.807 0-44.587-12.96-55.67-32.21l-0.165-0.311c-2.532 0.367-5.455 0.576-8.427 0.576-0.007 0-0.015 0-0.022 0h0.001c-23.452-0.077-43.916-12.796-54.941-31.697l-0.163-0.303h-56.896v48c0 8.837-7.163 16-16 16v0h-16v304c0 8.837-7.163 16-16 16v0h-192c-8.837 0-16-7.163-16-16v0-304h-16c-8.837 0-16-7.163-16-16v0-48h-56.896c-11.188 19.204-31.652 31.924-55.093 32h-0.011c-0.006 0-0.013 0-0.021 0-2.972 0-5.895-0.209-8.756-0.614l0.329 0.038c-11.264 19.56-32.054 32.516-55.87 32.516-2.866 0-5.689-0.188-8.456-0.551l0.325 0.035c-11.16 19.53-31.833 32.499-55.541 32.576h-0.011v428.352l384 225.104 384-225.104zM925.744 608l-405.648 237.792c-2.318 1.382-5.111 2.199-8.096 2.199s-5.778-0.817-8.17-2.24l0.074 0.041-439.904-257.872v42.912l448 262.624 448-262.624v-42.912l-32 18.768zM134.052 786.178l223.957 131.379 16.184-27.587-223.957-131.379-16.184 27.587zM71.908 749.798l27.298 16.014 16.184-27.587-27.298-16.014-16.184 27.587zM416 608v-80c0-8.837 7.163-16 16-16v0h160c8.837 0 16 7.163 16 16v0 80c0 53.019-42.981 96-96 96s-96-42.981-96-96v0zM496 669.728v-45.728h-45.728c5.974 22.437 23.291 39.754 45.282 45.627l0.446 0.101zM448 592h48v-48h-48zM528 544v48h48v-48zM573.728 624h-45.728v45.728c22.437-5.974 39.754-23.291 45.627-45.282l0.101-0.446zM688 256h160c8.837 0 16 7.163 16 16v0 160c0 8.837-7.163 16-16 16v0h-160c-8.837 0-16-7.163-16-16v0-160c0-8.837 7.163-16 16-16v0zM704 288v32h128v-32zM832 416v-64h-128v64zM336 448h-160c-8.837 0-16-7.163-16-16v0-160c0-8.837 7.163-16 16-16v0h160c8.837 0 16 7.163 16 16v0 160c0 8.837-7.163 16-16 16v0zM320 416v-64h-128v64zM192 288v32h128v-32zM960 448h32v-224h-32v224z" />
<glyph unicode="&#xe916;" glyph-name="question" d="M562 203c0-27.614-22.386-50-50-50s-50 22.386-50 50c0 27.614 22.386 50 50 50s50-22.386 50-50zM512 960c-282.968 0-512-228.994-512-512 0-282.968 228.994-512 512-512 282.968 0 512 228.994 512 512 0 282.968-228.994 512-512 512zM512 16c-238.754 0-432 193.214-432 432 0 238.754 193.214 432 432 432 238.754 0 432-193.214 432-432 0-238.754-193.214-432-432-432zM512 703c-88.224 0-160-71.776-160-160 0-22.092 17.908-40 40-40s40 17.908 40 40c0 44.112 35.888 80 80 80s80-35.888 80-80c0-44.112-35.888-80-80-80-22.092 0-40-17.908-40-40v-100c0-22.092 17.908-40 40-40s40 17.908 40 40v65.062c68.932 17.806 120 80.52 120 154.938 0 88.224-71.776 160-160 160z" />
<glyph unicode="&#xe917;" glyph-name="target" d="M40 448.062c0 228.242 185.695 413.938 413.938 413.938 82.758 0 162.625-24.344 230.969-70.398 9.156-6.172 21.594-3.75 27.766 5.406s3.75 21.586-5.406 27.758c-74.977 50.531-162.578 77.234-253.328 77.234-121.25 0-235.242-47.219-320.984-132.953-85.734-85.742-132.953-199.734-132.953-320.984 0-90.766 26.703-178.367 77.219-253.336 3.867-5.727 10.172-8.82 16.602-8.82 3.852 0 7.734 1.102 11.156 3.414 9.164 6.172 11.586 18.602 5.414 27.758-46.055 68.336-70.391 148.211-70.391 230.984zM1022.711 358.406l-27.328 89.656 27.711 90.906c1.844 6.063 0.711 12.641-3.063 17.734-3.773 5.086-9.734 8.094-16.070 8.094h-111.289c-13.586 51.266-35.922 99.375-66.57 143.188-6.328 9.055-18.797 11.258-27.852 4.922-9.055-6.328-11.258-18.797-4.922-27.852 25.883-37.008 45.266-77.367 57.828-120.258h-27.773c-8.797 0-16.563-5.75-19.125-14.172l-25.164-82.57h-35.914c-10.305 150.586-136.086 269.945-289.242 269.945-159.875 0-289.938-130.063-289.938-289.938 0-159.883 130.063-289.953 289.938-289.953 153.156 0 278.938 119.367 289.242 269.953h35.914l25.164-82.57c2.563-8.422 10.328-14.172 19.125-14.172h27.805c-51.313-176.219-211.219-297.203-397.25-297.203-85.344 0-167.297 25.781-237 74.547-9.047 6.336-21.516 4.133-27.852-4.922-6.328-9.047-4.125-21.516 4.922-27.852 76.461-53.492 166.344-81.773 259.93-81.773 103.469 0 204.695 35.742 285.031 100.633 74.969 60.563 129.109 144.094 153.711 236.57h111.32c11.047 0 20 8.953 20 20 0 2.5-0.461 4.883-1.289 7.086zM453.938 198.109c-137.82 0-249.945 112.125-249.945 249.953 0 137.82 112.125 249.945 249.945 249.945 131.094 0 238.922-101.445 249.148-229.945h-124.805c-9.609 59.977-61.703 105.945-124.344 105.945-69.445 0-125.945-56.492-125.945-125.945 0-69.445 56.5-125.953 125.945-125.953 62.641 0 114.734 45.977 124.344 105.953h124.805c-10.227-128.508-118.055-229.953-249.148-229.953zM453.938 428.062h83.578c-9.039-37.781-43.070-65.953-83.578-65.953-47.391 0-85.945 38.563-85.945 85.953s38.555 85.945 85.945 85.945c40.508 0 74.539-28.172 83.578-65.945h-83.578c-11.039 0-20-8.953-20-20s8.961-20 20-20zM955.344 442.227l21.617-70.906h-138.766l-23.383 76.742 23.383 76.734h38.734c0.031 0 0.063-0.008 0.094-0.008 0.023 0 0.047 0.008 0.070 0.008h99.867l-21.617-70.906c-1.156-3.797-1.156-7.859 0-11.664zM144.398 163.937c-11.016 0-20-8.984-20-20s8.984-19.992 20-19.992c11.016 0 20 8.977 20 19.992s-8.984 20-20 20zM758.063 737.602c11.016 0 19.992 8.984 19.992 20s-8.977 19.992-19.992 19.992-20.008-8.977-20.008-19.992c0-11.016 8.992-20 20.008-20z" />
<glyph unicode="&#xe918;" glyph-name="architecture-and-city1" d="M542 360h120v-304h-120zM362 360h120v-304h-120zM512 600c-16.555 0-30-13.445-30-30s13.445-30 30-30 30 13.445 30 30-13.445 30-30 30zM994 116h-90v322l-392 303.305-390-301.781v-323.523h-92c-16.578 0-30-13.422-30-30s13.422-30 30-30h272v334c0 16.578 13.422 30 30 30h360c16.578 0 30-13.422 30-30v-334h272c16.578 0 30 13.422 30 30s-13.422 30-30 30zM512 480c-49.617 0-90 40.383-90 90s40.383 90 90 90 90-40.383 90-90-40.383-90-90-90zM1011.695 582.258l-481.969 371.984c-10.547 7.68-24.906 7.68-35.453 0l-481.969-371.992c-13.672-10.023-16.219-29.008-6.297-42.25l36.031-48.016c9.914-13.164 28.437-15.836 41.664-6.242l428.297 331.422 428.328-331.406c13.242-9.695 31.789-6.828 41.633 6.242l36.031 48.016c9.922 13.242 7.367 32.227-6.297 42.242zM152 900c-16.57 0-30-13.43-30-30v-128.867c38.141 29.664 79.516 61.891 119.18 92.805 0.281 0.219 0.539 0.422 0.82 0.641v35.422c0 16.57-13.43 30-30 30zM245.164-20.578c-4.656-9.289-4.156-20.336 1.32-29.18 5.477-8.852 15.117-14.242 25.516-14.242h480c10.398 0 20.039 5.391 25.516 14.242 5.484 8.844 5.977 19.891 1.32 29.18l-8.289 16.578h-517.094z" />
<glyph unicode="&#xe919;" glyph-name="sheriff" d="M976 592c8.837 0 16 7.163 16 16v0 96c0 8.837-7.163 16-16 16v0h-32v48c0 8.837-7.163 16-16 16v0h-272v79.376c0 0 0 0 0 0.001 0 8.792-7.091 15.927-15.865 15.999h-0.007c-0.736 0-73.952 1.056-116.8 43.936-2.895 2.894-6.895 4.685-11.312 4.685s-8.417-1.79-11.312-4.685v0c-42.096-42.096-113.872-43.888-116.912-43.952-8.74-0.126-15.776-7.241-15.776-15.998 0-0.001 0-0.001 0-0.002v0-79.36h-272.016c-8.837 0-16-7.163-16-16v0-48h-32c-8.837 0-16-7.163-16-16v0-96c0-8.837 7.163-16 16-16v0h64v-416h-16c-8.837 0-16-7.163-16-16v0-48h-32c-8.837 0-16-7.163-16-16v0-96c0-8.837 7.163-16 16-16v0h928c8.837 0 16 7.163 16 16v0 96c0 8.837-7.163 16-16 16v0h-32v48c0 8.837-7.163 16-16 16v0h-16v416zM912 752v-32h-259.568c2.182 9.583 3.477 20.615 3.568 31.935v0.065zM400 848.384c42.5 3.647 80.848 18.902 112.581 42.542l-0.581-0.414c31.153-23.22 69.502-38.47 111.184-42.055l0.816-0.057v-96.4c0-86.64-88.544-132.112-112-142.624-23.456 10.512-112 56-112 142.624zM112 752h256c0.091-11.385 1.386-22.417 3.764-33.041l-0.196 1.041h-259.568zM64 80h224v32h-176v32h204.48l-25.6-128h-226.88zM323.52 16l25.6 128h325.76l25.6-128zM624 176h-224v224h224zM736 112v-32h224v-64h-226.88l-25.6 128h204.48v-32zM880 176h-224v240c0 8.837-7.163 16-16 16v0h-256c-8.837 0-16-7.163-16-16v0-240h-224v416h256v32h-336v64h317.696c33.968-75.904 120.16-109.28 124.688-110.992 1.664-0.635 3.589-1.002 5.6-1.002s3.936 0.368 5.711 1.039l-0.111-0.037c4.528 1.712 90.72 35.088 124.688 110.992h317.728v-64h-336v-32h256zM384 128h256v-32h-256v32zM368 64h288v-32h-288v32zM474.368 739.776l-8-24.736c-0.5-1.481-0.789-3.188-0.789-4.961 0-8.837 7.163-16 16-16 3.545 0 6.821 1.153 9.473 3.104l-0.044-0.031 20.992 15.28 21.024-15.28c2.608-1.92 5.884-3.073 9.429-3.073 8.837 0 16 7.163 16 16 0 1.774-0.289 3.48-0.821 5.074l0.033-0.113-8 24.736 21.024 15.28c4.016 2.943 6.595 7.642 6.595 12.944 0 8.837-7.163 16-16 16-0.012 0-0.025 0-0.037 0h-25.998l-8 24.72c-2.165 6.444-8.15 11.004-15.2 11.004s-13.035-4.56-15.167-10.891l-0.033-0.113-8.096-24.72h-26c-0.001 0-0.002 0-0.003 0-8.837 0-16-7.163-16-16 0-5.302 2.579-10.001 6.55-12.913l0.045-0.031zM512 756.992c1.343-1.406 2.933-2.562 4.704-3.399l0.096-0.041c-0.905-1.618-1.548-3.509-1.815-5.519l-0.009-0.081c-0.885 0.174-1.903 0.273-2.944 0.273s-2.059-0.099-3.044-0.289l0.1 0.016c-0.276 2.091-0.919 3.982-1.865 5.681l0.041-0.081c1.842 0.885 3.41 2.039 4.729 3.433l0.007 0.007zM704 304h128c8.837 0 16 7.163 16 16v0 96c0 8.837-7.163 16-16 16v0h-128c-8.837 0-16-7.163-16-16v0-96c0-8.837 7.163-16 16-16v0zM720 400h96v-64h-96zM320 432h-128c-8.837 0-16-7.163-16-16v0-96c0-8.837 7.163-16 16-16v0h128c8.837 0 16 7.163 16 16v0 96c0 8.837-7.163 16-16 16v0zM304 336h-96v64h96z" />
<glyph unicode="&#xe91a;" glyph-name="teacher" d="M996.163-64c-9.363 0-18.223 5.613-21.908 14.841l-58.843 147.291c-30.231 74.488-64.998 112.089-113.384 120.91l-12.294-58.683 17.011-153.025c0.89-8.019-2.379-15.938-8.668-20.991l-37.952-30.496c-4.189-3.367-9.399-5.201-14.773-5.201h-13.467c-5.372 0-10.584 1.834-14.773 5.201l-37.958 30.496c-6.291 5.053-9.561 12.972-8.668 20.991l17.014 153.025-12.297 58.68c-48.382-8.821-83.153-46.437-113.431-121.028l-59.762-147.288c-4.897-12.067-18.647-17.884-30.723-12.987-12.070 4.897-17.884 18.653-12.987 30.723l59.762 147.291c25.923 63.866 71.909 148.249 173.149 152.364 0.896 0.103 1.801 0.156 2.715 0.156h89.377c0.914 0 1.819-0.053 2.715-0.156 101.252-4.116 147.232-88.501 173.149-152.361l58.89-147.411c4.835-12.096-1.052-25.82-13.152-30.649-2.869-1.147-5.831-1.692-8.744-1.692zM718.799 14.999l19.821-15.923 19.815 15.92-13.665 122.918h-12.303l-13.668-122.915zM730.513 185.085h16.209l7.547 36.012h-31.301l7.544-36.012zM27.834-64c-2.954 0-5.955 0.557-8.859 1.736-12.070 4.897-17.884 18.653-12.987 30.723l58.875 145.106c26.218 64.597 73.247 150.478 178.556 150.478h78.094c56.767 0 103.49-25.242 138.871-75.028 0.584-0.82 3.264-4.472 6.518-8.903 11.271-15.363 14.266-19.479 15.254-20.97 7.188-10.867 4.204-25.496-6.663-32.683-10.823-7.158-25.372-4.228-32.592 6.527-1.268 1.822-9.561 13.125-14.030 19.222-3.511 4.782-6.392 8.712-6.952 9.505-16.318 22.963-34.558 38.441-55.785 47.017l-64.612-88.539c-4.44-6.082-11.519-9.682-19.051-9.682s-14.611 3.6-19.051 9.682l-64.606 88.528c-36.82-14.927-65.104-50.941-90.241-112.885l-58.875-145.106c-3.721-9.166-12.547-14.726-21.864-14.726zM251.258 216.872l31.212-42.772 31.212 42.772h-62.425zM377.605-63.991h-250.833c-13.025 0-23.585 10.56-23.585 23.585s10.56 23.585 23.585 23.585h250.833c13.025 0 23.585-10.56 23.585-23.585s-10.56-23.585-23.585-23.585zM845.872 107.678c-13.025 0-23.585 10.56-23.585 23.585v2.951c0 13.025 10.56 23.585 23.585 23.585s23.585-10.56 23.585-23.585v-2.951c0-13.025-10.56-23.585-23.585-23.585zM282.47 298.657c-65.989 0-119.675 53.686-119.675 119.678 0 54.355 36.422 100.359 86.14 114.893 0.242 0.077 0.484 0.153 0.731 0.221 7.878 2.244 15.976 3.665 24.175 4.251h0.006c0.035 0.006 0.077 0.012 0.115 0.009 0.056 0.006 0.094 0.009 0.136 0.009 0.050 0.003 0.097 0.003 0.147 0.012 0.050 0 0.083 0.003 0.13 0.009 0.062-0.003 0.103 0.006 0.15 0.009 0.041 0.012 0.080 0.006 0.121 0.009 0.094-0.003 0.18 0.009 0.271 0.018v0c0.389 0.027 0.775 0.047 1.167 0.065l0.006 0.003c0.127 0.006 0.254 0.012 0.38 0.018 0.041-0.003 0.165 0.012 0.256 0.015 0.032-0.003 0.077 0 0.121 0.006 0.050 0.006 0.097 0.003 0.147 0.006 0.041 0.003 0.068 0.003 0.115 0.006 0.035 0 0.065 0.003 0.109 0.003 0.044 0.009 0.091 0.006 0.13 0.006 0.044 0.006 0.080 0.012 0.136 0.006 0.032 0.006 0.062 0.009 0.103 0.006 0.091 0.006 0.186-0.018 0.274 0.012 1.462 0.056 2.928 0.083 4.396 0.085 0.038-0.003 0.068 0 0.103 0s0.074 0 0.106 0c0.006 0 0.006 0 0.006 0 0.118 0 0.239 0 0.354 0h0.003c0.062 0 0.13 0.003 0.186 0s0.139-0.006 0.189-0.003c0.068 0 0.142-0.003 0.203 0 0.024 0 0.050 0 0.074 0 58.657-0.484 107.546-42.69 117.013-99.796 1.085-6.465 1.651-13.105 1.651-19.877 0.003-65.992-53.683-119.678-119.675-119.678zM240.046 477.098c-18.211-13.184-30.080-34.614-30.080-58.766 0-39.983 32.524-72.507 72.504-72.507 33.886 0 62.419 23.367 70.326 54.836-51.236-0.292-95.294 30.926-112.75 76.437zM285.448 490.778c10.911-24.67 35.045-41.731 63.229-42.887-10.952 24.431-35.045 41.74-63.229 42.887zM738.614 304.115c-66.785 0-121.12 54.338-121.12 121.126 0 66.785 54.335 121.12 121.12 121.12 7.99 0 15.805-0.778 23.37-2.264 0.492-0.083 0.988-0.183 1.48-0.301 54.91-11.495 96.275-60.287 96.275-118.558 0-66.785-54.338-121.123-121.126-121.123zM696.718 486.146c-19.346-13.349-32.053-35.676-32.053-60.906 0-40.779 33.173-73.955 73.949-73.955 40.779 0 73.955 33.176 73.955 73.955 0 30.343-18.37 56.475-44.573 67.864-9.894-12.742-22.262-23.423-36.466-31.395-11.359-6.38-25.735-2.338-32.111 9.021-2.739 4.87-3.555 10.301-2.701 15.416zM179.939 550.711c-4.122 0-8.243 1.079-11.922 3.237-7.223 4.234-11.663 11.975-11.663 20.348v212.513c0 41.307 33.606 74.91 74.913 74.91h83.675c13.025 0 23.585-10.56 23.585-23.585s-10.56-23.585-23.585-23.585h-83.675c-15.295 0-27.742-12.444-27.742-27.739v-172.262l32.474 18.199c3.523 1.975 7.494 3.010 11.53 3.010h204.656c13.025 0 23.585-10.56 23.585-23.585s-10.56-23.585-23.585-23.585h-198.5l-62.218-34.865c-3.582-2.008-7.556-3.010-11.527-3.010zM738.744 599.565c-6.507 0-12.875 2.695-17.433 7.692l-72.602 79.609h-190.708c-41.304 0-74.907 33.603-74.907 74.907v123.316c0 41.307 33.603 74.91 74.907 74.91h229.406c41.307 0 74.913-33.603 74.913-74.91v-261.939c0-9.738-5.982-18.473-15.062-21.99-2.771-1.076-5.658-1.595-8.514-1.595zM458.001 912.829c-15.295 0-27.736-12.444-27.736-27.739v-123.313c0-15.295 12.444-27.736 27.736-27.736h201.118c6.633 0 12.96-2.792 17.427-7.692l38.606-42.33v201.071c0 15.295-12.447 27.739-27.742 27.739h-229.409zM310.221 725.393h-42.79c-13.025 0-23.585 10.56-23.585 23.585s10.56 23.585 23.585 23.585h42.79c13.025 0 23.585-10.56 23.585-23.585s-10.56-23.585-23.585-23.585zM646.221 822.297h-97.352c-13.025 0-23.585 10.56-23.585 23.585s10.56 23.585 23.585 23.585h97.352c13.025 0 23.585-10.56 23.585-23.585s-10.56-23.585-23.585-23.585z" />
<glyph unicode="&#xe91b;" glyph-name="cross" d="M1006.933 652.8h-17.067v187.733c0 9.425-7.642 17.067-17.067 17.067h-290.133v85.333c0 9.425-7.642 17.067-17.067 17.067h-307.2c-9.425 0-17.067-7.642-17.067-17.067v-85.333h-290.133c-9.425 0-17.067-7.642-17.067-17.067v-187.733h-17.067c-9.425 0-17.067-7.642-17.067-17.067v-68.267c0-9.425 7.642-17.067 17.067-17.067h17.067v-597.333c0-9.425 7.642-17.067 17.067-17.067h921.6c9.425 0 17.067 7.642 17.067 17.067v597.333h17.067c9.425 0 17.067 7.642 17.067 17.067v68.267c0 9.425-7.642 17.067-17.067 17.067zM682.667 823.467h273.067v-170.667h-273.067zM375.467 925.867h273.067v-273.067h-273.067zM68.267 823.467h273.067v-170.667h-273.067zM836.267-29.867h-221.867v136.533h221.867zM836.267 140.8h-221.867v170.667h221.867zM836.267 345.6h-221.867v85.333h221.867zM955.733-29.867h-85.333v477.867c0 9.425-7.642 17.067-17.067 17.067h-256c-9.425 0-17.067-7.642-17.067-17.067v-477.867h-512v580.267h887.467zM989.867 584.533h-955.733v34.133h955.733zM170.667 89.6h307.2c9.425 0 17.067 7.642 17.067 17.067v85.333c0 9.425-7.642 17.067-17.067 17.067h-17.067v238.933c0 9.425-7.642 17.067-17.067 17.067h-238.933c-9.425 0-17.067-7.642-17.067-17.067v-238.933h-17.067c-9.425 0-17.067-7.642-17.067-17.067v-85.333c0-9.425 7.642-17.067 17.067-17.067zM221.867 430.933h204.8v-221.867h-204.8zM187.733 174.933h273.067v-51.2h-273.067zM785.067 209.067c9.425 0 17.067 7.642 17.067 17.067v17.067c0 9.425-7.642 17.067-17.067 17.067s-17.067-7.642-17.067-17.067v-17.067c0-9.425 7.642-17.067 17.067-17.067zM597.333 840.533h-34.133v34.133c0 9.425-7.642 17.067-17.067 17.067h-68.267c-9.425 0-17.067-7.642-17.067-17.067v-34.133h-34.133c-9.425 0-17.067-7.642-17.067-17.067v-68.267c0-9.425 7.642-17.067 17.067-17.067h34.133v-34.133c0-9.425 7.642-17.067 17.067-17.067h68.267c9.425 0 17.067 7.642 17.067 17.067v34.133h34.133c9.425 0 17.067 7.642 17.067 17.067v68.267c0 9.425-7.642 17.067-17.067 17.067zM580.267 772.267h-34.133c-9.425 0-17.067-7.642-17.067-17.067v-34.133h-34.133v34.133c0 9.425-7.642 17.067-17.067 17.067h-34.133v34.133h34.133c9.425 0 17.067 7.642 17.067 17.067v34.133h34.133v-34.133c0-9.425 7.642-17.067 17.067-17.067h34.133zM285.133 316.467l51.2 51.2c6.467 6.7 6.375 17.342-0.208 23.925s-17.225 6.675-23.925 0.208l-51.2-51.2c-4.433-4.283-6.217-10.633-4.65-16.6 1.558-5.967 6.217-10.625 12.183-12.183 5.967-1.567 12.317 0.217 16.6 4.65zM363.4 357.667l-85.333-85.333c-4.433-4.283-6.217-10.633-4.65-16.6 1.558-5.967 6.217-10.625 12.183-12.183 5.967-1.567 12.317 0.217 16.6 4.65l85.333 85.333c6.467 6.7 6.375 17.342-0.208 23.925s-17.225 6.675-23.925 0.208z" />
<glyph unicode="&#xe91c;" glyph-name="furniture-and-household" d="M1004 906h-492c-11.046 0-20-8.956-20-20v-319.53c0-11.044 8.954-20 20-20s20 8.956 20 20v299.53h452v-836h-452v364c0 11.044-8.954 20-20 20s-20-8.956-20-20v-384c0-11.044 8.954-20 20-20h492c11.046 0 20 8.956 20 20v876c0 11.044-8.954 20-20 20zM526.14 498.14c-3.72 3.722-8.88 5.86-14.14 5.86s-10.42-2.14-14.14-5.86-5.86-8.88-5.86-14.14 2.14-10.42 5.86-14.138c3.72-3.722 8.88-5.862 14.14-5.862s10.42 2.14 14.14 5.862c3.72 3.718 5.86 8.878 5.86 14.138s-2.14 10.418-5.86 14.14zM926 826h-336c-11.046 0-20-8.956-20-20v-716c0-11.044 8.954-20 20-20h336c11.046 0 20 8.956 20 20v716c0 11.044-8.954 20-20 20zM906 110h-296v676h296v-676zM404 906h-384c-11.046 0-20-8.956-20-20v-384c0-11.044 8.954-20 20-20h384c11.046 0 20 8.956 20 20v384c0 11.044-8.954 20-20 20zM384 522h-344v344h344v-344zM324 826h-224c-11.046 0-20-8.956-20-20v-224c0-11.044 8.954-20 20-20h224c11.046 0 20 8.956 20 20v224c0 11.044-8.954 20-20 20zM304 602h-184v184h184v-184zM324 334h-224c-11.046 0-20-8.956-20-20v-224c0-11.044 8.954-20 20-20h224c11.046 0 20 8.956 20 20v224c0 11.044-8.954 20-20 20zM304 110h-184v184h184v-184zM232.14 408.14c-3.72 3.722-8.88 5.86-14.14 5.86s-10.42-2.14-14.14-5.86-5.86-8.88-5.86-14.14 2.14-10.42 5.86-14.138c3.72-3.722 8.88-5.862 14.14-5.862s10.42 2.14 14.14 5.862c3.72 3.718 5.86 8.878 5.86 14.138s-2.14 10.418-5.86 14.14zM404 414h-102c-11.046 0-20-8.956-20-20s8.954-20 20-20h82v-344h-344v344h86c11.046 0 20 8.956 20 20s-8.954 20-20 20h-106c-11.046 0-20-8.956-20-20v-384c0-11.044 8.954-20 20-20h384c11.046 0 20 8.956 20 20v384c0 11.044-8.954 20-20 20zM865.428 479.074l-89.356 167.856c-0.278 0.588-0.586 1.162-0.926 1.726-3.616 6.020-10.146 9.704-17.168 9.704s-13.53-3.684-17.146-9.704c-0.402-0.67-0.762-1.356-1.078-2.056l-89.18-167.526c-12.958-24.34-17.468-52.702-12.702-79.862 9.094-51.808 49.242-91.236 99.338-100.614v-40.958c0-11.044 8.954-20 20-20s20 8.956 20 20v40.65c50.836 8.834 91.732 48.568 100.922 100.922 4.764 27.162 0.252 55.522-12.704 79.862zM737.206 339.646c-30.458 8.62-54.228 33.95-59.938 66.48-2.148 12.24-1.502 24.836 1.742 36.756l58.196-58.196v-45.040zM737.208 441.256l-40.104 40.104 40.104 75.336v-115.44zM777.208 559.672l41.138-77.278-41.138-41.138v118.416zM838.732 406.126c-5.808-33.092-30.306-58.734-61.524-66.912v45.47l59.448 59.448c3.546-12.284 4.3-25.338 2.076-38.006z" />
<glyph unicode="&#xe91d;" glyph-name="shop" d="M0 544c0-59.562 40.876-109.188 96-123.5v-420.5h-64c-17.626 0-32-14.312-32-32s14.376-32 32-32h960c17.75 0 32 14.312 32 32s-14.25 32-32 32h-64v420.5c55.124 14.312 96 63.938 96 123.5v32h-1024v-32zM640 416c70.75 0 128 57.312 128 128 0-59.562 40.876-109.188 96-123.5v-420.5h-480v416c70.75 0 128 57.312 128 128 0-70.688 57.376-128 128-128zM352 420.5v-420.5h-192v420.5c55.126 14.312 96 63.938 96 123.5 0-59.562 40.876-109.188 96-123.5zM896 864h-768l-128-256h1024l-128 256zM270.376 792.874l-64-128c-2.876-5.626-8.5-8.876-14.376-8.876-2.376 0-4.812 0.5-7.126 1.688-7.876 3.938-11.126 13.562-7.126 21.438l64 128c4 7.876 13.562 11.062 21.438 7.188 7.94-3.938 11.064-13.562 7.19-21.438zM398.376 792.874l-64-128c-2.876-5.626-8.5-8.876-14.376-8.876-2.376 0-4.812 0.5-7.126 1.688-7.876 3.938-11.126 13.562-7.126 21.438l64 128c4 7.876 13.626 11.062 21.438 7.188 7.94-3.938 11.064-13.562 7.19-21.438zM528 672c0-8.876-7.124-16-16-16-8.812 0-16 7.126-16 16v128c0 8.876 7.188 16 16 16 8.876 0 16-7.126 16-16v-128zM711.75 658c-2.5-1.376-5.124-2-7.75-2-5.624 0-11.124 3-14 8.312l-70 128c-4.25 7.75-1.376 17.5 6.376 21.688 7.626 4.25 17.5 1.5 21.75-6.312l70-128c4.124-7.75 1.374-17.5-6.376-21.688zM839.124 657.688c-2.248-1.188-4.624-1.688-7.124-1.688-5.876 0-11.5 3.25-14.25 8.876l-64 128c-4 7.876-0.75 17.5 7.124 21.438 7.75 3.938 17.5 0.75 21.5-7.188l64-128c3.876-7.876 0.75-17.502-7.25-21.438zM272 187.124v73.75c-9.376 5.624-16 15.376-16 27.124 0 17.688 14.376 32 32 32 17.75 0 32-14.312 32-32 0-11.75-6.562-21.5-16-27.124v-73.75c9.438-5.626 16-15.376 16-27.126 0-17.688-14.25-32-32-32-17.626 0-32 14.312-32 32 0 11.752 6.626 21.502 16 27.126zM128 928c0 17.688 14.376 32 32 32h704c17.75 0 32-14.312 32-32s-14.25-32-32-32h-704c-17.624 0-32 14.312-32 32zM560.876 244.688l-22.624 22.626 90.5 90.5 22.624-22.626-90.5-90.5zM560.876 154.188l-22.624 22.626 181 181 22.624-22.626-181-181zM719.25 267.312l22.624-22.626-90.5-90.5-22.624 22.626 90.5 90.5z" />
<glyph unicode="&#xe91e;" glyph-name="company" d="M634 510v-574h390v574h-390zM799 240h-60v60h60v-60zM799 360h-60v60h60v-60zM919 240h-60v60h60v-60zM919 360h-60v60h60v-60zM694 660h270v-90h-270v90zM754 960h150v-240h-150v240zM450 420h124v-484h-124v484zM0 510v-574h390v574h-390zM165 240h-60v60h60v-60zM165 360h-60v60h60v-60zM285 240h-60v60h60v-60zM285 360h-60v60h60v-60zM60 660h270v-90h-270v90zM120 960h150v-240h-150v240z" />
<glyph unicode="&#xe91f;" glyph-name="lamp" d="M363.355 910.452c0-27.315 22.234-49.548 49.548-49.548h82.581v-99.097h-33.032v-112.306l-84.218-202.129 40.976-81.952h26.726c0-36.435 29.629-66.065 66.065-66.065s66.065 29.629 66.065 66.065h26.726l40.96 81.952-84.202 202.129v112.306h-33.032v99.097h82.581c27.315 0 49.548 22.234 49.548 49.548v49.548h-297.29zM495.484 728.774h33.032v-66.065h-33.032zM512 332.387c-18.218 0-33.032 14.815-33.032 33.032h66.065c0-18.218-14.815-33.032-33.032-33.032zM584.371 398.452h-144.742l-25.105 50.177 75.46 181.048h44.048l75.444-181.048zM396.387 926.968h231.226v-16.516c0-9.113-7.403-16.516-16.516-16.516h-198.194c-9.113 0-16.516 7.403-16.516 16.516zM726.71 596.645v-49.548c0-27.315 22.234-49.548 49.548-49.548h82.581v-99.097h-33.032v-110.605l-26.637-39.976c-25.798-38.694-39.427-83.718-39.427-130.194s13.629-91.5 39.427-130.194l34.315-51.484h83.742l34.315 51.484c25.798 38.694 39.427 83.718 39.427 130.194s-13.629 91.5-39.427 130.194l-26.637 39.976v110.605h-33.032v99.097h82.581c27.315 0 49.548 22.234 49.548 49.548v49.548zM858.839 365.419h33.032v-66.065h-33.032zM957.935 117.677c0-39.935-11.71-78.637-33.871-111.863l-24.516-36.782h-48.387l-24.516 36.782c-22.161 33.226-33.871 71.927-33.871 111.863s11.71 78.637 33.871 111.863l24.516 36.782h48.387l24.516-36.782c22.161-33.226 33.871-71.927 33.871-111.863zM990.968 547.097c0-9.113-7.403-16.516-16.516-16.516h-198.194c-9.113 0-16.516 7.403-16.516 16.516v16.516h231.226zM0 745.29c0-27.315 22.234-49.548 49.548-49.548h82.581v-99.097h-33.032v-135.25c0-77.065-33.96-149.573-93.169-198.887l-5.927-4.952v-57.298h67.734c7.677-37.637 41.024-66.065 80.911-66.065s73.234 28.427 80.911 66.065h67.734v57.298l-5.927 4.952c-59.21 49.315-93.169 121.823-93.169 198.887v135.25h-33.032v99.097h82.581c27.315 0 49.548 22.234 49.548 49.548v49.548h-297.29zM132.129 563.613h33.032v-66.065h-33.032zM148.645 167.226c-21.5 0-39.669 13.855-46.508 33.032h93c-6.823-19.177-24.992-33.032-46.492-33.032zM264.258 242.21v-8.919h-231.226v8.919c63.073 55.444 99.097 134.887 99.097 219.185v3.121h33.032v-3.121c0-84.298 36.024-163.742 99.097-219.185zM33.032 761.806h231.226v-16.516c0-9.113-7.403-16.516-16.516-16.516h-198.194c-9.113 0-16.516 7.403-16.516 16.516z" />
<glyph unicode="&#xe920;" glyph-name="sketch" d="M149.329 789.641c-35.346 0-64-28.654-64-64v-170.667h42.666v170.667c0 11.782 9.552 21.334 21.334 21.334h512.002v42.666h-512.002zM149.329 149.639c-11.782 0-21.334 9.552-21.334 21.334v213.335h-42.666v-213.335c0-35.346 28.654-64 64-64h213.335v42.666h-213.335zM676.415 94.621l-518.104 518.104c-8.33 8.328-21.834 8.328-30.166 0l-121.898-121.9c-8.328-8.33-8.328-21.834 0-30.166l518.104-518.102c4-4.002 9.426-6.25 15.082-6.25 5.658 0.002 11.082 2.25 15.082 6.25l121.898 121.898c8.33 8.332 8.33 21.836 0.002 30.166zM539.432-12.196l-487.938 487.938 91.734 91.734 487.938-487.94-91.734-91.732zM938.666 149.639h-320.001v-42.666h234.667v-106.666c0-11.782 9.552-21.334 21.334-21.334h64c47.128 0 85.334 38.204 85.334 85.334 0 47.128-38.206 85.332-85.334 85.332zM938.666 21.638h-42.666v85.334h42.666c23.564 0 42.666-19.102 42.666-42.666 0-23.566-19.102-42.668-42.666-42.668zM938.666 789.641h-106.666v-42.666h106.666c23.564 0 42.666-19.102 42.666-42.666v-640.003h42.666v640.003c0.002 47.128-38.204 85.332-85.332 85.332zM326.25 292.722l64.006 64.006 30.169-30.169-64.006-64.006-30.169 30.169zM240.918 378.056l64.006 64.006 30.169-30.169-64.006-64.006-30.169 30.169zM411.537 207.388l64.006 64.006 30.169-30.169-64.006-64.006-30.169 30.169zM496.909 122.011l64.006 64.006 30.169-30.169-64.006-64.006-30.169 30.169zM155.526 463.39l64.006 64.006 30.169-30.169-64.006-64.006-30.169 30.169zM920.192 912.352l-29.484 29.482c-24.946 23.814-64.206 23.814-89.152 0l-324.395-324.395c-8.328-8.33-8.328-21.834 0-30.166l88.47-88.47c3.99-4.016 9.422-6.266 15.082-6.25 5.658 0.002 11.082 2.25 15.082 6.25l324.397 324.397c0.010 0.010 0.020 0.020 0.030 0.030 24.602 24.618 24.588 64.52-0.030 89.122zM890.047 853.386l-309.335-309.333-58.304 58.304 309.335 309.313c8.056 7.698 20.744 7.698 28.8 0l29.504-29.462c0.002-0.004 0.006-0.006 0.010-0.010 7.952-7.958 7.948-20.858-0.010-28.812zM573.864 534.11l-92.074-30.742 30.742 92.224-40.534 13.504-44.246-132.715c-0.724-2.176-1.094-4.454-1.094-6.746 0.002-11.782 9.556-21.332 21.338-21.328 2.258-0.008 4.504 0.338 6.656 1.024l132.715 44.246-13.502 40.532zM742.559 852.701l30.169 30.169 88.473-88.473-30.169-30.169-88.473 88.473zM447.998 490.974h320.001v-42.666h-320.001v42.666zM810.665 490.974h42.666v-42.666h-42.666v42.666zM895.999 490.974h42.666v-42.666h-42.666v42.666z" />
<glyph unicode="&#xe921;" glyph-name="out" d="M977.454 960h-372.364c-25.706 0-46.546-20.84-46.546-46.546s20.84-46.546 46.546-46.546h259.994l-479.086-479.088c-18.174-18.174-18.174-47.646 0-65.824 9.086-9.086 20.998-13.632 32.91-13.632s23.826 4.546 32.91 13.634l479.092 479.086v-259.994c0-25.706 20.84-46.546 46.546-46.546s46.546 20.84 46.546 46.546v372.364c-0.002 25.706-20.842 46.546-46.548 46.546zM791.272 494.546c-25.706 0-46.546-20.84-46.546-46.546v-418.91h-651.636v651.638h418.91c25.706 0 46.546 20.84 46.546 46.546s-20.84 46.544-46.546 46.544h-465.454c-25.706 0-46.546-20.84-46.546-46.546v-744.728c0-25.704 20.84-46.544 46.546-46.544h744.728c25.706 0 46.546 20.84 46.546 46.546v465.454c-0.002 25.706-20.842 46.546-46.548 46.546z" />
<glyph unicode="&#xe922;" glyph-name="paint" d="M952.11 914.398h-116.75c-8.289 0-15-6.711-15-15 0-8.281 6.711-15 15-15h116.75c2.758 0 5-2.242 5-5v-587.719c0-8.281 6.719-15 15-15 8.289 0 15 6.719 15 15v587.719c0 19.305-15.695 35-35 35zM972.11 241.359c-8.281 0-15-6.711-15-15v-202.336c0-30.891-25.125-56.023-56.016-56.023s-56.016 25.133-56.016 56.023v333.649c0 47.43-38.594 86.016-86.024 86.016s-86.016-38.586-86.016-86.016v-101.461c0-30.891-25.133-56.016-56.016-56.016-30.891 0-56.023 25.125-56.023 56.016v74.875l76.352 76.359c10.422 10.414 13.93 25.125 10.633 38.477l184.016 184.016c15.82 15.82 15.82 41.57 0 57.391l-197.078 197.071h135.11c8.289 0 15 6.719 15 15 0 8.289-6.711 15-15 15h-165.11l-35.727 35.734c-15.828 15.82-41.57 15.82-57.391 0l-184-183.992c-3.172 0.781-6.445 1.234-9.805 1.234-10.836 0-21.031-4.219-28.695-11.883l-79.586-79.594c-15.82-15.82-15.82-41.563 0-57.383l105.547-105.555c-46.344-45.266-100.727-86.422-161.813-122.383-17.766-10.461-34.703-23.695-50.352-39.336-28.219-28.227-48.797-61.047-57.938-92.422-10.039-34.484-5.344-63.711 13.234-82.289 12.391-12.391 29.398-18.453 49.039-18.453 28.75 0.008 63.125 13.008 96.82 38.156 6.633 4.961 8 14.359 3.047 20.992-4.961 6.641-14.359 8.008-20.992 3.047-42.883-32-87.75-41.477-106.703-22.531-10.328 10.336-12.383 29.531-5.641 52.688 7.75 26.609 25.633 54.875 50.352 79.594 13.852 13.852 28.773 25.531 44.352 34.695 63.281 37.258 119.68 79.977 167.805 127.024l37.133-37.125c-47.055-48.133-89.766-104.531-127.024-167.813-4.656-7.906-10.133-15.867-16.289-23.656-5.133-6.5-4.023-15.938 2.477-21.070 2.75-2.172 6.031-3.227 9.289-3.227 4.43 0 8.82 1.953 11.781 5.703 7 8.859 13.258 17.953 18.594 27.031 35.969 61.094 77.125 115.477 122.391 161.82l105.547-105.547c7.664-7.672 17.852-11.891 28.695-11.891 0.648 0 1.289 0.063 1.93 0.094v-59.852c0-47.43 38.594-86.016 86.024-86.016s86.016 38.586 86.016 86.016v101.461c0 30.883 25.133 56.016 56.023 56.016 30.883 0 56.016-25.125 56.016-56.016v-333.649c0-47.438 38.586-86.024 86.016-86.024 47.438 0 86.024 38.586 86.024 86.024v202.336c-0.008 8.289-6.719 15-15.008 15zM533.016 928.922c4.125 4.125 10.836 4.125 14.961 0l262.805-262.813c4.125-4.117 4.125-10.836 0-14.953l-179.875-179.875-70.164 70.164 30.391 30.391c5.859 5.867 5.859 15.359 0 21.219-5.859 5.852-15.359 5.852-21.211 0l-30.398-30.391-106.234 106.234 30.398 30.391c5.859 5.852 5.859 15.352 0 21.211-5.859 5.852-15.359 5.859-21.211 0l-30.398-30.391-16.164 16.164 119.625 119.625c5.859 5.867 5.859 15.359 0 21.219s-15.359 5.859-21.211 0l-119.633-119.625-21.555 21.555zM521.594 349.070l-290.664 290.657c-4.125 4.125-4.125 10.836 0 14.961l79.594 79.586c2 2 4.656 3.102 7.477 3.102 2.828 0 5.484-1.102 7.484-3.102l290.657-290.657c4.125-4.125 4.125-10.836 0-14.961l-79.586-79.586c-2-2-4.656-3.102-7.484-3.102s-5.477 1.102-7.477 3.102zM335.547 612.359c-5.859 5.859-15.359 5.859-21.219 0s-5.859-15.352 0-21.211l158.688-158.688c2.93-2.922 6.766-4.391 10.609-4.391 3.836 0 7.672 1.469 10.602 4.391 5.859 5.867 5.859 15.359 0 21.219zM887.039 597.445h-0.156c-8.289 0-14.922-6.711-14.922-15s6.789-15 15.078-15 15 6.711 15 15c0 8.289-6.711 15-15 15zM899.399 556.445c-8.289-0.109-14.836-6.906-14.734-15.188 0.102-8.219 6.875-14.813 15.070-14.813h0.195c8.281 0.109 14.914 6.906 14.813 15.188-0.102 8.219-6.797 14.813-15 14.813-0.063 0-0.125 0-0.188 0zM806.297 510.234c-8.289 0-14.922-6.711-14.922-15 0-8.281 6.789-15 15.078-15s15 6.719 15 15c0 8.289-6.711 15-15 15z" />
<glyph unicode="&#xe923;" glyph-name="plus" d="M984 488h-432v432c0 22.092-17.908 40-40 40s-40-17.908-40-40v-432h-432c-22.092 0-40-17.908-40-40s17.908-40 40-40h432v-432c0-22.092 17.908-40 40-40s40 17.908 40 40v432h432c22.092 0 40 17.908 40 40s-17.908 40-40 40z" />
<glyph unicode="&#xe924;" glyph-name="floor" d="M896.531 593.281c8.305 0 15.031 6.734 15.031 15.031v336.656c0 8.305-6.727 15.031-15.031 15.031h-769.5c-8.305 0-15.031-6.727-15.031-15.031v-993.938c0-8.305 6.727-15.031 15.031-15.031h96.188c8.297 0 15.031 6.727 15.031 15.031v257.5h66.125v-161.313c0-8.305 6.727-15.031 15.031-15.031h96.188c8.305 0 15.031 6.727 15.031 15.031v465.906h66.125v-81.156c0-8.297 6.727-15.031 15.031-15.031h81.156v-193.375c0-8.305 6.727-15.031 15.031-15.031h81.156v-113.219c0-8.305 6.727-15.031 15.031-15.031h96.188c8.305 0 15.031 6.727 15.031 15.031v305.594h81.156c8.305 0 15.031 6.734 15.031 15.031v128.25c0 8.297-6.727 15.031-15.031 15.031s-15.031-6.734-15.031-15.031v-113.219h-66.125v498.969h66.125v-321.625c0-8.297 6.727-15.031 15.031-15.031zM785.313 575.25h-66.125v354.688h66.125zM689.125 655.406h-66.125v274.531h66.125zM400.563 528.156v-161.313h-66.125v563.094h66.125zM304.375 655.406h-66.125v274.531h66.125zM142.063 929.937h66.125v-386.75h-66.125zM208.188-33.938h-66.125v547.063h66.125zM238.25 238.594v386.75h66.125v-386.75zM400.563 62.25h-66.125v274.531h66.125zM430.625 543.187v386.75h66.125v-386.75zM526.813 447v482.938h66.125v-482.938zM623 238.594v386.75h66.125v-386.75zM785.313 110.344h-66.125v434.844h66.125z" />
<glyph unicode="&#xe925;" glyph-name="maps-and-location1" d="M511.984-64c-11.242 0-22.195 4.594-30.047 12.609-20.719 21.211-75.070 80.633-132.688 174.781-72.055 117.766-123.742 246.828-153.609 383.617-14.109 64.57-17.289 126.609-9.453 184.383 9.992 73.531 35.891 133.203 76.984 177.367 56.352 60.539 140.063 91.242 248.813 91.242 108.758 0 192.469-30.703 248.82-91.242 41.102-44.172 67.008-103.844 76.984-177.367 7.836-57.805 4.648-119.844-9.477-184.398-29.859-136.773-81.539-265.836-153.609-383.602-57.602-94.133-111.961-153.57-132.656-174.75-7.82-8.016-18.766-12.625-30.016-12.641-0.016 0-0.031 0-0.047 0zM511.984 900c-49.242 0-92.336-7.063-128.070-21-30.453-11.875-56.305-29.078-76.82-51.125-32.484-34.914-53.164-83.547-61.453-144.563-6.891-50.789-3.992-105.805 8.617-163.508 28.438-130.227 77.617-253.063 146.172-365.094 44.906-73.383 87.273-123.992 111.547-150.523 24.281 26.547 66.656 77.156 111.547 150.523 68.563 112.031 117.742 234.867 146.172 365.094 12.625 57.68 15.523 112.695 8.633 163.516-8.273 61-28.953 109.633-61.445 144.555-20.516 22.047-46.359 39.25-76.828 51.125-35.734 13.938-78.82 21-128.070 21zM511.984 455.086c-82.992 0-150.508 67.398-150.508 150.242 0 82.852 67.516 150.258 150.508 150.258s150.508-67.406 150.508-150.258c0-82.844-67.516-150.242-150.508-150.242zM511.984 695.586c-49.906 0-90.508-40.492-90.508-90.258 0-49.758 40.602-90.242 90.508-90.242s90.508 40.484 90.508 90.242c0 49.766-40.602 90.258-90.508 90.258z" />
<glyph unicode="&#xe926;" glyph-name="quote1" d="M224.78 543.906c123.591 0 223.781-100.192 223.781-223.781s-100.19-223.781-223.781-223.781-223.781 100.192-223.781 223.781l-0.999 31.969c0 247.183 200.38 447.563 447.563 447.563v-127.875c-85.391 0-165.672-33.254-226.053-93.635-11.623-11.625-22.23-23.993-31.799-36.984 11.427 1.798 23.137 2.743 35.070 2.743zM800.219 543.906c123.589 0 223.781-100.192 223.781-223.781s-100.192-223.781-223.781-223.781-223.781 100.192-223.781 223.781l-0.999 31.969c0 247.183 200.378 447.563 447.563 447.563v-127.875c-85.389 0-165.674-33.254-226.053-93.635-11.625-11.625-22.232-23.993-31.801-36.984 11.427 1.798 23.137 2.743 35.072 2.743z" />
<glyph unicode="&#xe927;" glyph-name="pin1" d="M497.1 930.212c-151.85 0-275.395-123.546-275.395-275.395 0-81.442 42.336-143.316 91.354-214.963 69.45-101.487 155.861-227.793 155.861-469.641h56.361c0 243.196 86.52 369.191 156.038 470.438 48.924 71.253 91.185 132.796 91.185 214.167 0 151.85-123.542 275.395-275.403 275.395zM497.1 531.549c-67.966 0-123.26 55.298-123.26 123.268 0 67.966 55.294 123.26 123.26 123.26 67.97 0 123.271-55.294 123.271-123.26 0-67.97-55.301-123.268-123.271-123.268zM497.1 721.72c-36.886 0-66.9-30.017-66.9-66.903 0-36.901 30.013-66.911 66.9-66.911 36.901 0 66.911 30.009 66.911 66.911 0 36.886-30.009 66.903-66.911 66.903z" />
<glyph unicode="&#xe928;" glyph-name="ruler" d="M720 518.461l32.563 162.836-142.703 142.703-162.828-32.563h-87.031c-198.508 0-360-161.5-360-360 0-198.508 161.492-360 360-360h360v60h244v-60h60v240h-304zM687.438 661.57l-15.859-79.289-160.727 160.727 79.289 15.859zM660 131.43h-300c-165.422 0-300 134.586-300 300 0 165.422 134.578 300 300 300h77.57l222.43-222.422zM964 251.43v-60h-244v60zM180 431.43c0-99.25 80.75-180 180-180s180 80.75 180 180c0 99.258-80.75 180-180 180s-180-80.742-180-180zM480 431.43c0-66.164-53.828-120-120-120s-120 53.836-120 120c0 66.172 53.828 120 120 120s120-53.828 120-120zM540 251.43h60v-60h-60z" />
<glyph unicode="&#xe929;" glyph-name="window" d="M68.267 755.2h34.133v-273.067h-34.133zM689.975 925.867h-355.95c-10.7 20.883-32.167 34.050-55.633 34.133h-278.392v-34.133h278.392c15.9-0.017 28.792-12.908 28.808-28.808v-909.858c0-9.425-7.642-17.067-17.067-17.067s-17.067 7.642-17.067 17.067v136.533h-34.133v-88.475c-5.467 2.025-11.242 3.083-17.067 3.142h-34.133c-5.825-0.058-11.6-1.117-17.067-3.142v344.475h-34.133v-392.533c0-9.425-7.642-17.067-17.067-17.067h-34.133c-9.425 0-17.067 7.642-17.067 17.067v238.933h-34.133v-190.875c-5.467 2.025-11.242 3.083-17.067 3.142h-17.067v-34.133h17.067c9.425 0 17.067-7.642 17.067-17.067 0-28.275 22.925-51.2 51.2-51.2h34.133c28.275 0 51.2 22.925 51.2 51.2 0 9.425 7.642 17.067 17.067 17.067h34.133c9.425 0 17.067-7.642 17.067-17.067 0-28.275 22.925-51.2 51.2-51.2s51.2 22.925 51.2 51.2v51.2h341.333v-51.2c0-28.275 22.925-51.2 51.2-51.2s51.2 22.925 51.2 51.2c0 9.425 7.642 17.067 17.067 17.067h34.133c9.425 0 17.067-7.642 17.067-17.067 0-28.275 22.925-51.2 51.2-51.2h34.133c28.275 0 51.2 22.925 51.2 51.2 0 9.425 7.642 17.067 17.067 17.067h17.067v34.133h-17.067c-5.825-0.058-11.6-1.117-17.067-3.142v190.875h-34.133v-238.933c0-9.425-7.642-17.067-17.067-17.067h-34.133c-9.425 0-17.067 7.642-17.067 17.067v392.533h-34.133v-344.475c-5.467 2.025-11.242 3.083-17.067 3.142h-34.133c-5.825-0.058-11.6-1.117-17.067-3.142v122.608h-34.133v-170.667c0-9.425-7.642-17.067-17.067-17.067s-17.067 7.642-17.067 17.067v909.858c0.008 15.9 12.892 28.792 28.792 28.808h278.408v34.133h-278.408c-23.458-0.092-44.917-13.258-55.617-34.133zM341.333 823.467h153.6v-358.4h-153.6zM341.333 430.933h153.6v-358.4h-153.6zM529.067 72.533v358.4h153.6v-358.4zM682.667 465.067h-153.6v358.4h153.6zM341.333 857.6v34.133h341.333v-34.133zM921.6 755.2h34.133v-273.067h-34.133z" />
<glyph unicode="&#xe92a;" glyph-name="calendar" d="M904 880h-48v80h-80v-80h-528v80h-80v-80h-48c-66.168 0-120-53.832-120-120v-704c0-66.168 53.832-120 120-120h784c66.168 0 120 53.832 120 120v704c0 66.168-53.832 120-120 120zM944 56c0-22.056-17.944-40-40-40h-784c-22.056 0-40 17.944-40 40v528h864v-528zM944 664h-864v96c0 22.056 17.944 40 40 40h48v-80h80v80h528v-80h80v80h48c22.056 0 40-17.944 40-40v-96zM152 500h80v-80h-80v80zM312 500h80v-80h-80v80zM472 500h80v-80h-80v80zM632 500h80v-80h-80v80zM792 500h80v-80h-80v80zM152 340h80v-80h-80v80zM312 340h80v-80h-80v80zM472 340h80v-80h-80v80zM632 340h80v-80h-80v80zM152 180h80v-80h-80v80zM312 180h80v-80h-80v80zM472 180h80v-80h-80v80zM632 180h80v-80h-80v80zM792 340h80v-80h-80v80z" />
<glyph unicode="&#xe92b;" glyph-name="car" d="M458.028 218.072c4-0.299 8.665-0.47 13.369-0.47 105.134 0 190.362 85.228 190.362 190.362s-85.228 190.362-190.362 190.362c-27.256 0-53.175-5.728-76.617-16.047l1.22 0.479v-342.636c10.762-4.928 20.011-10.454 28.575-16.847l-0.407 0.291c9.823-2.635 21.378-4.586 33.232-5.457l0.628-0.037zM651.4 625.068c-2.263-1.639-5.095-2.622-8.157-2.622-3.164 0-6.082 1.049-8.427 2.819l0.035-0.026c-25.067 19.206-54.373 34.457-86.113 44.124l-1.949 0.51c-5.761 1.713-9.92 6.887-10.088 13.057v0.019l-1.72 65.4-54.618 3.824c-13.697-43.023-44.104-77.323-83.402-95.887l-0.962-0.409v-42.968c22.393 8.488 48.282 13.402 75.32 13.402 120.595 0 218.356-97.761 218.356-218.356 0-120.481-97.577-218.171-218.014-218.356h-0.018c-4.782 0-9.584 0.172-14.4 0.482 18.441-25.038 29.536-56.475 29.6-90.501v-0.015c0-0.021 0-0.045 0-0.070 0-13.182-1.638-25.981-4.722-38.205l0.23 1.075 4.63-0.324 10.8 64.532c1.032 6.003 5.769 10.651 11.733 11.537l0.077 0.009c34.913 5.154 66.34 16.339 94.531 32.524l-1.299-0.688c1.993 1.157 4.385 1.84 6.937 1.84 3.75 0 7.155-1.474 9.668-3.875l-0.005 0.005 47.144-44.938 59.782 51.97-37.95 52.926c-1.639 2.263-2.621 5.095-2.621 8.156 0 3.165 1.050 6.084 2.821 8.429l-0.026-0.035c19.206 25.066 34.455 54.372 44.118 86.112l0.51 1.948c1.712 5.757 6.879 9.914 13.042 10.088h0.020l64.486 1.772 5.55 79.352-64.532 10.8c-6.003 1.033-10.65 5.771-11.535 11.736l-0.009 0.076c-5.151 34.914-16.332 66.343-32.512 94.537l0.688-1.301c-1.157 1.993-1.84 4.386-1.84 6.938 0 3.749 1.474 7.154 3.873 9.667l-0.005-0.005 45 47.2-51.154 59.6zM256-0.67v55.182c0.085 4.864 2.604 9.122 6.387 11.619l0.053 0.033 62.16 41.328c2.193 1.471 4.892 2.348 7.796 2.348 3.018 0 5.814-0.947 8.109-2.56l-0.045 0.030 62.886-43.988c3.635-2.564 5.98-6.746 5.98-11.475 0-0.015 0-0.030 0-0.045v0.002l-0.176-52.574c18.331 13.971 32.506 32.511 40.93 53.942l0.294 0.848c0.196 0.59 0.391 1.071 0.612 1.538l-0.036-0.084c4.994 13.056 7.886 28.157 7.886 43.934 0 53.774-33.602 99.701-80.954 117.928l-0.864 0.292c-5.316 2.042-9.020 7.106-9.020 13.035 0 0.029 0 0.057 0 0.086v-0.004 434.512c0 0.023 0 0.051 0 0.079 0 5.93 3.704 10.994 8.925 13.005l0.095 0.032c48.422 18.376 82.214 64.385 82.214 118.286 0 40.594-19.167 76.712-48.944 99.797l-0.288 0.215v-55.182c-0.151-4.884-2.72-9.137-6.544-11.618l-0.056-0.034-62.244-41.328c-2.195-1.471-4.897-2.348-7.803-2.348-3.020 0-5.819 0.947-8.116 2.56l0.045-0.030-62.92 43.988c-3.647 2.567-6 6.758-6 11.499 0 0.008 0 0.015 0 0.023v-0.001l0.168 52.574c-30.321-23.108-49.691-59.241-49.691-99.899 0-0.153 0-0.306 0.001-0.459v0.024c0.191-53.718 33.798-99.538 81.11-117.773l0.866-0.293c5.381-2.037 9.145-7.132 9.18-13.112v-434.516c-0.036-5.984-3.8-11.079-9.085-13.084l-0.097-0.032c-48.219-18.512-81.875-64.325-82.138-118.033v-0.033c0.257-40.624 19.384-76.728 49.047-100.022l0.277-0.21z" />
<glyph unicode="&#xe92c;" glyph-name="price" d="M1009.774 503.063l-456.117 282.063c-25.695 15.891-57.617 15.891-83.313 0l-75.68-46.797v66.617c0 34.773-28.313 63.055-63.117 63.055h-43.094c-34.797 0-63.109-28.289-63.109-63.055v-171.328l-211.117-130.555c-14.094-8.711-18.453-27.195-9.734-41.289 8.711-14.094 27.203-18.453 41.289-9.742l81.031 50.109v-414.141h-9.945c-16.57 0-30-13.43-30-30s13.43-30 30-30h790.266c16.57 0 30 13.43 30 30s-13.43 30-30 30h-9.945v414.141l81.023-50.102c4.922-3.039 10.367-4.492 15.75-4.492 10.055 0 19.875 5.055 25.547 14.227 8.719 14.094 4.359 32.578-9.734 41.289zM285.336 804.945c0 1.688 1.398 3.055 3.117 3.055h43.094c1.719 0 3.125-1.367 3.125-3.055v-103.719l-49.328-30.508v134.227zM837.188 88h-650.375v451.25l315.086 194.844c6.234 3.852 13.969 3.852 20.203 0l315.086-194.844zM482.367 562.281v-42.664c-34.766-12.367-59.727-45.609-59.727-84.57 0-49.477 40.25-89.727 89.727-89.727 16.398 0 29.734-13.336 29.734-29.734 0-16.391-13.336-29.727-29.734-29.727h-59.727c-16.57 0-30-13.43-30-30s13.43-30 30-30h29.727v-37.5c0-16.57 13.438-30 30-30 16.57 0 30 13.43 30 30v42.656c34.773 12.367 59.734 45.609 59.734 84.57 0 49.477-40.25 89.734-89.734 89.734-16.391 0-29.727 13.336-29.727 29.727 0 16.398 13.336 29.734 29.727 29.734h59.734c16.57 0 30 13.43 30 30s-13.43 30-30 30h-29.734v37.5c0 16.57-13.43 30-30 30-16.563 0-30-13.438-30-30z" />
<glyph unicode="&#xe92d;" glyph-name="success1" d="M1007.484 332.387c9.113 0 16.516 7.403 16.516 16.516v231.226c0 45.532-37.048 82.581-82.581 82.581h-396.387c-9.113 0-16.516-7.403-16.516-16.516v-66.065c0-9.113 7.403-16.516 16.516-16.516h231.226v-132.129h-99.097c-27.315 0-49.548-22.234-49.548-49.548v-247.742h-231.226v49.548c0 9.113-7.403 16.516-16.516 16.516h-181.677v396.387h280.774c9.113 0 16.516 7.403 16.516 16.516v99.097h148.645c6.411 0 12.242 3.718 14.96 9.516 2.726 5.815 1.839 12.661-2.274 17.573l-73.766 88.524 73.766 88.524c4.113 4.927 4.984 11.782 2.274 17.573-2.718 5.798-8.548 9.516-14.96 9.516h-297.29c-9.113 0-16.516-7.403-16.516-16.516v-99.097h-132.129v22.823c10.161 11.629 16.516 26.645 16.516 43.242 0 36.435-29.629 66.065-66.065 66.065s-66.065-29.629-66.065-66.065c0-16.597 6.355-31.613 16.516-43.242v-650.435h-82.581c-9.113 0-16.516-7.403-16.516-16.516v-231.226c0-9.113 7.403-16.516 16.516-16.516h990.968c9.113 0 16.516 7.403 16.516 16.516v99.097c0 9.113-7.403 16.516-16.516 16.516h-49.548v264.258zM548.863 838.444c-5.105-6.129-5.105-15.032 0-21.145l60.008-72.008h-113.387v66.065c0 4.952-2.298 9.266-5.75 12.29l0.121 0.129-99.065 86.677h218.056zM363.355 890.565l71.661-62.694h-71.661zM462.452 794.839v-165.161h-264.258v33.032h99.097v33.032h-99.097v33.032h99.097v33.032h-99.097v33.032zM148.645 926.968c18.218 0 33.032-14.815 33.032-33.032s-14.815-33.032-33.032-33.032-33.032 14.815-33.032 33.032 14.815 33.032 33.032 33.032zM132.129 830.218c5.315-1.387 10.782-2.347 16.516-2.347s11.202 0.96 16.516 2.347v-629.96h-33.032zM990.968-30.968h-957.935v198.194h330.323v-49.548c0-9.113 7.403-16.516 16.516-16.516h346.839v-49.548c0-9.113 7.403-16.516 16.516-16.516h247.742zM858.839 68.129h-99.097v49.548c0 9.113-7.403 16.516-16.516 16.516h-16.516v198.194h132.129zM891.871 68.129v280.774c0 9.113-7.403 16.516-16.516 16.516h-165.161c-9.113 0-16.516-7.403-16.516-16.516v-214.71h-33.032v247.742c0 9.097 7.419 16.516 16.516 16.516h115.613c9.113 0 16.516 7.403 16.516 16.516v165.161c0 9.113-7.403 16.516-16.516 16.516h-231.226v33.032h379.871c27.315 0 49.548-22.234 49.548-49.548v-214.71h-33.032v165.161h-33.032v-462.452zM858.839 695.742c45.532 0 82.581 37.048 82.581 82.581v33.032c0 45.532-37.048 82.581-82.581 82.581s-82.581-37.048-82.581-82.581v-33.032c0-45.532 37.048-82.581 82.581-82.581zM809.29 811.355c0 27.315 22.234 49.548 49.548 49.548s49.548-22.234 49.548-49.548v-33.032c0-27.315-22.234-49.548-49.548-49.548s-49.548 22.234-49.548 49.548z" />
<glyph unicode="&#xe92e;" glyph-name="group" d="M368.796 816.791c0 79.088 64.121 143.209 143.221 143.209 79.077 0 143.198-64.121 143.198-143.209s-64.121-143.209-143.198-143.209c-79.099 0-143.221 64.121-143.221 143.209zM580.831 576.013c1.448 31.179 12.171 60.046 29.45 83.916-12.126 2.537-24.645 3.885-37.501 3.885h-121.517c-12.811 0-25.33-1.336-37.388-3.851 18.38-25.498 29.383-56.621 29.563-90.327 22.321 12.294 47.954 19.289 75.192 19.289 22.096 0 43.126-4.603 62.201-12.912zM605.083 563.168c41.599-26.082 70.768-70.218 76.079-121.45 16.965-7.927 35.794-12.485 55.757-12.485 72.879 0 131.948 59.069 131.948 131.937 0 72.879-59.069 131.948-131.948 131.948-72.183-0.011-130.735-58.025-131.836-129.949zM518.63 292.996c72.879 0 131.948 59.091 131.948 131.959 0 72.857-59.080 131.937-131.948 131.937s-131.97-59.080-131.97-131.937c0-72.879 59.114-131.959 131.97-131.959zM574.6 284.014h-111.963c-93.156 0-168.943-75.798-168.943-168.943v-136.933l0.348-2.133 9.431-2.964c88.901-27.766 166.136-37.040 229.708-37.040 124.167 0 196.137 35.39 200.572 37.658l8.814 4.469h0.943v136.944c0.034 93.145-75.753 168.943-168.91 168.943zM792.911 420.217h-111.098c-1.201-44.45-20.176-84.466-50.188-113.265 82.804-24.622 143.389-101.397 143.389-192.095v-42.205c109.695 4.031 172.907 35.12 177.072 37.197l8.814 4.469h0.943v136.967c0 93.145-75.787 168.932-168.932 168.932zM287.115 429.233c25.812 0 49.829 7.523 70.173 20.356 6.467 42.182 29.080 79.043 61.382 104.148 0.135 2.47 0.371 4.918 0.371 7.41 0 72.879-59.080 131.948-131.925 131.948-72.89 0-131.948-59.069-131.948-131.948-0.011-72.857 59.058-131.914 131.948-131.914zM405.601 306.952c-29.866 28.642-48.773 68.467-50.154 112.625-4.121 0.303-8.196 0.64-12.395 0.64h-111.951c-93.156 0-168.943-75.787-168.943-168.932v-136.933l0.348-2.122 9.431-2.964c71.318-22.276 134.968-32.527 190.253-35.771v41.363c0.022 90.697 60.596 167.472 143.411 192.095z" />
<glyph unicode="&#xe92f;" glyph-name="guarantee-certificate1" d="M82.581 860.903h66.065v-313.806c0-6.952 4.363-13.161 10.887-15.524 6.54-2.363 13.855-0.379 18.315 4.952l69.895 83.871 69.879-83.871c3.218-3.847 7.895-5.944 12.702-5.944 1.879 0 3.782 0.331 5.629 0.992 6.524 2.363 10.887 8.573 10.887 15.524v313.806h231.226v-115.613c0-9.137 7.379-16.516 16.516-16.516h115.613v-132.129h33.032v148.645c0 4.573-1.863 8.702-4.855 11.694l-132.081 132.081c-3.008 3.008-7.137 4.871-11.71 4.871h-445.935v33.032h627.613v-363.355h33.032v379.871c0 9.137-7.379 16.516-16.516 16.516h-660.645c-9.137 0-16.516-7.379-16.516-16.516v-49.548h-49.548c-9.137 0-16.516-7.379-16.516-16.516v-924.903c0-9.137 7.379-16.516 16.516-16.516h561.548v33.032h-545.032zM611.097 837.548l75.742-75.742h-75.742zM260.444 656.782c-3.153 3.75-7.798 5.927-12.702 5.927s-9.548-2.177-12.702-5.927l-53.363-64.065v202.121h132.129v-202.121zM313.806 860.903v-33.032h-132.129v33.032zM957.935 464.516h-24.871c-73.75 0-143.113 32.484-190.315 89.121l-3.339 4.016c-6.258 7.548-19.129 7.548-25.387 0l-3.339-4c-47.218-56.653-116.581-89.137-190.331-89.137h-24.871c-9.137 0-16.516-7.379-16.516-16.516v-267.492c0-65.040 35.081-125.492 91.548-157.75l148-84.581c2.532-1.452 5.371-2.177 8.194-2.177s5.661 0.726 8.194 2.177l148 84.581c56.468 32.258 91.548 92.71 91.548 157.75v267.492c0 9.137-7.379 16.516-16.516 16.516zM941.419 180.508c0-53.218-28.685-102.669-74.903-129.056l-139.806-79.927-139.806 79.903c-46.218 26.411-74.903 75.863-74.903 129.081v250.976h8.355c78.815 0 153.242 32.75 206.355 90.363 53.097-57.613 127.54-90.363 206.355-90.363h8.355zM115.613 167.226h330.323v-33.032h-330.323zM115.613 101.161h330.323v-33.032h-330.323zM115.613 497.548h330.323v-33.032h-330.323zM115.613 431.484h330.323v-33.032h-330.323zM115.613 35.097h330.323v-33.032h-330.323zM800.452 381.935c-20.016 0-38.831-7.798-52.968-21.935l-20.774-20.774-20.774 20.774c-14.137 14.137-32.952 21.935-52.968 21.935-41.306 0-74.903-33.597-74.903-74.903v-1.992c0-18.355 6.702-36.040 18.927-49.766l117.379-132.048c3.121-3.532 7.629-5.548 12.339-5.548s9.218 2.016 12.339 5.548l117.395 132.048c12.21 13.726 18.911 31.395 18.911 49.766v1.992c0 41.306-33.597 74.903-74.903 74.903zM842.323 305.040c0-10.258-3.766-20.153-10.573-27.831l-105.040-118.161-105.024 118.161c-6.823 7.677-10.589 17.573-10.589 27.831v1.992c0 23.073 18.798 41.871 41.871 41.871 11.194 0 21.702-4.363 29.613-12.258l32.452-32.452c6.46-6.46 16.895-6.46 23.355 0l32.452 32.452c7.895 7.895 18.419 12.258 29.613 12.258 23.073 0 41.871-18.798 41.871-41.871zM710.194 84.645h33.032v-33.032h-33.032z" />
<glyph unicode="&#xe930;" glyph-name="hr1" d="M512 693.516l121.589 101.323h159.185v165.161h-396.387v-165.161h115.613zM429.419 827.871v99.097h330.323v-99.097h-138.105l-76.605-63.839v63.839zM462.452 893.935h33.032v-33.032h-33.032zM528.516 893.935h132.129v-33.032h-132.129zM693.677 893.935h33.032v-33.032h-33.032zM840.75-30.968l-13.355 133.702c55.145 8.718 97.508 56.468 97.508 114.040v214.71h-66.065v22.823c0 22.452-12.339 42.613-32.177 52.952 19.726 18.121 32.177 44.032 32.177 72.871v33.032c0 54.653-44.444 99.097-99.097 99.097s-99.097-44.444-99.097-99.097v-33.032c0-42.758 27.266-79.161 65.29-93.032l-88.645-88.645h-92.621c-1.847 27.532-20.758 51.532-47.548 59.194l-67.702 19.323v29.5c20.218 18.153 33.032 44.395 33.032 73.661v33.032c0 54.653-44.444 99.097-99.097 99.097s-99.097-44.444-99.097-99.097v-33.032c0-29.25 12.815-55.492 33.032-73.661v-29.516l-67.702-19.323c-28.21-8.040-47.911-34.169-47.911-63.524v-61.718h-66.065v-99.097h33.032v-264.258h-148.645v-33.032h1024v33.032zM693.677 233.29v75.742l117.032 117.032c8.46 8.46 13.492 19.823 14.621 31.677 0.145-1.153 0.476-2.242 0.476-3.435v-204.5c0-27.315-22.234-49.548-49.548-49.548h-132.129v33.032zM644.129 101.161h84.153l13.21-132.129h-97.363zM761.476 101.161h32.871l13.21-132.129h-32.871zM858.839 249.806v148.645h33.032v-181.677c0-45.532-37.048-82.581-82.581-82.581h-165.161v33.032h132.129c45.532 0 82.581 37.048 82.581 82.581zM693.677 580.129v33.032c0 36.435 29.629 66.065 66.065 66.065s66.065-29.629 66.065-66.065v-33.032c0-36.435-29.629-66.065-66.065-66.065s-66.065 29.629-66.065 66.065zM650.968 365.419l110.194 110.194c3.452 3.452 8.226 5.419 13.097 5.419 10.21 0 18.516-8.306 18.516-18.516 0-4.871-1.968-9.645-5.419-13.097l-117.032-117.032h-174.839c-9.113 0-16.516 7.403-16.516 16.516s7.403 16.516 16.516 16.516zM297.29 613.161c0 36.435 29.629 66.065 66.065 66.065s66.065-29.629 66.065-66.065v-33.032c0-36.435-29.629-66.065-66.065-66.065s-66.065 29.629-66.065 66.065zM363.355 481.032c11.597 0 22.677 2.113 33.032 5.782v-17.742c-4.097-6.323-15.476-21.073-33.032-21.073s-28.935 14.75-33.032 21.073v17.742c10.355-3.669 21.435-5.782 33.032-5.782zM214.71 394.105c0 14.685 9.863 27.734 23.952 31.766l68.040 19.435c9.581-12.484 28.226-30.339 56.653-30.339s47.073 17.855 56.653 30.355l68.040-19.435c12.653-3.621 21.476-14.621 23.242-27.419h-15.806c-27.315 0-49.548-22.234-49.548-49.548 0-5.815 1.185-11.331 3.040-16.516h-234.266zM148.645 299.355h512v-33.032h-512zM181.677 167.226h49.548v33.032h-49.548v33.032h429.419v-33.032h-346.839v-33.032h346.839v-198.194h-39.339l-33.032 66.065h-284.677l-33.032-66.065h-39.339zM534.823-30.968h-276.871l16.516 33.032h243.839z" />
<glyph unicode="&#xe931;" glyph-name="link1" d="M603.968 497.696c-2.848 17.44-19.104 29.408-36.768 26.368-17.44-2.848-29.248-19.328-26.4-36.736 2.112-12.928 3.2-26.144 3.2-39.328 0-132.352-107.648-240-240-240s-240 107.68-240 240 107.648 240 240 240c37.696 0 73.824-8.512 107.328-25.248 15.872-7.872 35.040-1.504 42.944 14.304 7.872 15.808 1.472 35.040-14.336 42.944-42.464 21.216-88.192 32-135.936 32-167.616 0-304-136.384-304-304s136.384-304 304-304 304 136.384 304 304c0 16.64-1.344 33.344-4.032 49.696zM720 752c-167.616 0-304-136.384-304-304 0-16.448 1.312-32.8 3.936-48.8 2.816-17.44 19.2-29.376 36.704-26.432 17.44 2.816 29.28 19.328 26.432 36.672-2.048 12.576-3.072 25.568-3.072 38.56 0 132.352 107.616 240 240 240s240-107.648 240-240-107.616-240-240-240c-37.76 0-73.824 8.512-107.328 25.248-15.808 7.808-35.072 1.504-42.944-14.304-7.936-15.744-1.536-35.040 14.24-42.944 42.464-21.216 88.192-32 135.968-32 167.584 0 304 136.384 304 304 0.064 167.616-136.32 304-303.936 304z" />
<glyph unicode="&#xe932;" glyph-name="search1" d="M998.935 82.081l-222.458 222.454c-1.182 1.182-2.569 2.009-3.805 3.109 43.772 66.399 69.32 145.881 69.32 231.356 0 232.513-188.487 421-420.996 421s-420.996-188.487-420.996-420.996c0-232.505 188.483-420.996 420.992-420.996 85.479 0 164.956 25.548 231.356 69.32 1.1-1.231 1.923-2.618 3.105-3.8l222.462-222.462c33.418-33.414 87.598-33.414 121.020 0 33.414 33.418 33.414 87.598 0 121.016zM420.996 263.953c-151.911 0-275.054 123.144-275.054 275.050 0 151.911 123.148 275.054 275.054 275.054 151.902 0 275.050-123.148 275.050-275.054s-123.148-275.050-275.050-275.050z" />
<glyph unicode="&#xe933;" glyph-name="wallet1" d="M957.935 563.613c0 109.287-88.906 198.194-198.194 198.194s-198.194-88.906-198.194-198.194c0-109.287 88.906-198.194 198.194-198.194s198.194 88.906 198.194 198.194zM594.581 563.613c0 91.070 74.091 165.161 165.161 165.161s165.161-74.091 165.161-165.161-74.091-165.161-165.161-165.161-165.161 74.091-165.161 165.161zM776.258 431.484v33.875c27.945 4.046 49.548 27.929 49.548 56.964 0 31.876-25.93 57.806-57.806 57.806h-16.516c-13.659 0-24.774 11.115-24.774 24.774s11.115 24.774 24.774 24.774h16.516c13.659 0 24.774-11.115 24.774-24.774v-8.258h33.032v8.258c0 29.035-21.603 52.918-49.548 56.964v33.875h-33.032v-33.875c-27.945-4.046-49.548-27.929-49.548-56.964 0-31.876 25.93-57.806 57.806-57.806h16.516c13.659 0 24.774-11.115 24.774-24.774s-11.115-24.774-24.774-24.774h-16.516c-13.659 0-24.774 11.115-24.774 24.774v8.258h-33.032v-8.258c0-29.035 21.603-52.918 49.548-56.964v-33.875h33.032zM264.258 266.323c27.318 0 49.548 22.231 49.548 49.548s-22.231 49.548-49.548 49.548-49.548-22.231-49.548-49.548 22.231-49.548 49.548-49.548zM264.258 332.387c9.1 0 16.516-7.399 16.516-16.516s-7.416-16.516-16.516-16.516-16.516 7.399-16.516 16.516c0 9.117 7.416 16.516 16.516 16.516zM561.548 266.323h429.419v-49.548c0-27.318-22.231-49.548-49.548-49.548h-363.355c-27.318 0-49.548 22.231-49.548 49.548v231.226c0 45.535-37.046 82.581-82.581 82.581h-363.355c-45.535 0-82.581-37.046-82.581-82.581v-429.419c0-45.535 37.046-82.581 82.581-82.581h495.484c45.535 0 82.581 37.046 82.581 82.581v115.613h280.774c45.535 0 82.581 37.046 82.581 82.581v82.581h-462.452v-33.032zM198.194 497.548h132.129v-198.194c0-36.435-29.63-66.065-66.065-66.065s-66.065 29.63-66.065 66.065v198.194zM82.581-30.968c-27.318 0-49.548 22.231-49.548 49.548v429.419c0 27.318 22.231 49.548 49.548 49.548h82.581v-198.194c0-54.652 44.445-99.097 99.097-99.097s99.097 44.445 99.097 99.097v198.194h82.581c27.318 0 49.548-22.231 49.548-49.548v-429.419c0-18.581 6.177-35.741 16.549-49.548h-429.452zM627.613 18.581c0-27.318-22.231-49.548-49.548-49.548s-49.548 22.231-49.548 49.548v132.558c9.645-7.3 20.761-12.767 33.032-15.261v-133.814h33.032v132.129h33.032v-115.613zM941.419 960h-363.355c-45.535 0-82.581-37.046-82.581-82.581v-330.323h33.032v280.774h462.452v-495.484h33.032v545.032c0 45.535-37.046 82.581-82.581 82.581zM990.968 860.903h-462.452v16.516c0 27.318 22.231 49.548 49.548 49.548h363.355c27.318 0 49.548-22.231 49.548-49.548v-16.516zM693.677 233.29h132.129v-33.032h-132.129v33.032zM264.258 563.613c109.287 0 198.194 88.906 198.194 198.194s-88.906 198.194-198.194 198.194c-109.287 0-198.194-88.906-198.194-198.194s88.906-198.194 198.194-198.194zM264.258 926.968c91.070 0 165.161-74.091 165.161-165.161s-74.091-165.161-165.161-165.161-165.161 74.091-165.161 165.161 74.091 165.161 165.161 165.161zM247.742 663.552v-33.875h33.032v33.875c27.945 4.046 49.548 27.929 49.548 56.964 0 31.876-25.93 57.806-57.806 57.806h-16.516c-13.659 0-24.774 11.115-24.774 24.774s11.115 24.774 24.774 24.774h16.516c13.659 0 24.774-11.115 24.774-24.774v-8.258h33.032v8.258c0 29.035-21.603 52.918-49.548 56.964v33.875h-33.032v-33.875c-27.945-4.046-49.548-27.929-49.548-56.964 0-31.876 25.93-57.806 57.806-57.806h16.516c13.659 0 24.774-11.115 24.774-24.774s-11.115-24.774-24.774-24.774h-16.516c-13.659 0-24.774 11.115-24.774 24.774v8.258h-33.032v-8.258c0-29.035 21.603-52.918 49.548-56.964z" />
<glyph unicode="&#xe934;" glyph-name="heart" d="M1022.306 640.139c-14.947 164.519-131.395 283.881-277.126 283.881-97.089 0-185.985-52.247-236.006-135.983-49.568 84.82-134.821 136.003-230.354 136.003-145.712 0-262.179-119.362-277.106-283.881-1.182-7.267-6.026-45.512 8.705-107.881 21.23-89.96 70.266-171.786 141.773-236.577l356.747-323.741 362.871 323.721c71.507 64.811 120.544 146.618 141.773 236.597 14.731 62.349 9.886 100.594 8.724 107.861z" />
</font>
</defs>
</svg>
