<?xml version="1.0" standalone="no"?>
<!DOCTYPE svg PUBLIC "-//W3C//DTD SVG 1.1//EN" "http://www.w3.org/Graphics/SVG/1.1/DTD/svg11.dtd" >
<svg xmlns="http://www.w3.org/2000/svg">
<metadata>Generated by IcoMoon</metadata>
<defs>
<font id="energy-icon" horiz-adv-x="1024">
<font-face units-per-em="1024" ascent="960" descent="-64" />
<missing-glyph horiz-adv-x="1024" />
<glyph unicode="&#x20;" horiz-adv-x="512" d="" />
<glyph unicode="&#xe900;" glyph-name="architect" d="M779.999 500.564c-31.781 0-59.578-20.484-69.437-49.914-6.805-2.445-13.008-6.383-18.266-11.641-9.383-9.414-14.555-21.906-14.555-35.164 0-0.414 0.008-0.828 0.023-1.234v-157.499c-18.937 12.258-25.351 14.258-108.023 50.219v40.562c21.906 10.602 42.109 24.922 59.828 42.64 41.547 41.547 64.429 96.796 64.429 155.57v37.805c11.844 11.242 18.594 26.922 18.594 43.289v5.086c6.781 3.484 11.437 10.555 11.437 18.687v65.062c0 19.359-15.375 35.195-34.555 35.945v4.547c0 119.171-96.976 215.476-215.476 215.476-59.234 0-116.414-24.773-156.929-67.812-5.68-6.031-5.391-15.531 0.641-21.203 6.031-5.68 15.523-5.391 21.203 0.641 6.656 7.070 13.758 13.547 21.242 19.398l18.351-97.742c1.531-8.141 9.367-13.508 17.516-11.977 8.141 1.531 13.5 9.367 11.969 17.508l-20.633 109.867c26.32 13.945 55.82 21.32 86.64 21.32 31.258 0 60.734-7.773 86.601-21.484l-20.601-109.695c-1.734-9.25 5.375-17.773 14.758-17.773 7.078 0 13.375 5.031 14.727 12.234l18.328 97.601c43.578-33.969 71.656-86.945 71.656-146.359v-4.516h-47.976c-8.281 0-15-6.719-15-15 0-8.289 6.719-15 15-15h76.562c3.289 0 5.969-2.687 5.969-5.977v-56.054h-440.053v56.054c0 3.289 2.68 5.977 5.977 5.977h76.554c8.289 0 15 6.711 15 15 0 8.281-6.711 15-15 15h-47.976v4.516c0 28.367 6.234 55.586 18.523 80.898 3.617 7.453 0.508 16.43-6.945 20.047s-16.43 0.508-20.047-6.945c-14.289-29.43-21.531-61.054-21.531-94v-4.547c-19.18-0.75-34.555-16.586-34.555-35.945v-65.062c0-8.133 4.648-15.203 11.43-18.687v-5.086c0-16.367 6.766-32.055 18.601-43.297v-37.797c0-87.015 50.781-162.398 124.265-198.062v-40.711c-15.836-6.883-28.594-12.422-38.969-16.93-17.32-7.516-28.070-12.18-35.383-15.43l-1.695-0.734c-2.945-1.281-5.852-2.625-8.719-4.023-4.070-1.945-6.75-3.406-10.828-5.641-0.125-0.070-0.242-0.133-0.359-0.203-0.461-0.25-0.891-0.508-1.281-0.734-68.14-38.805-111.031-111.468-111.031-191.093v-102.023c0-12.414 10.102-22.523 22.523-22.523h645.716c8.281 0 15 6.719 15 15v476.326c0 40.383-32.859 73.242-73.242 73.242zM779.999 470.564c47.336 0 60.781-66.804 15-83.797v51.836c0 8.281-6.711 15-15 15h-34.351c7.977 10.398 20.523 16.961 34.351 16.961zM713.53 417.815c3.086 3.086 6.984 5.023 11.391 5.617 0.797 0.117 1.641 0.172 2.586 0.172h37.5v-39.523h-37.5c-10.617 0-19.476 8.633-19.75 19.242 0 0.133-0.008 0.258-0.016 0.383v0.133c0 5.273 2.062 10.242 5.789 13.977zM521.117 158.909c-0.242 0.156-0.484 0.305-0.727 0.453l-23.734 14.672 69.562 82.687c1.492 1.773 2.539 3.852 3.086 6.070 6.078-2.648 11.633-5.055 16.719-7.266l43.508-18.937c4.18-1.844 7.234-3.211 9.672-4.344l-62.422-107.75zM371.165 124.495l-62.414 107.742c1.977 0.922 4.352 1.992 7.383 3.344l62.562 27.226c0.547-2.219 1.594-4.305 3.086-6.078l69.554-82.687zM682.593 617.978v-2.781c0-17.672-15.273-31.297-32.531-29.461-58.414 6.148-117.242 9.227-176.062 9.227-58.828 0-117.648-3.078-176.062-9.227-17.641-1.875-32.539 12.203-32.539 29.461v2.781zM284.001 534.103v22.484c5.586-1.039 11.336-1.289 17.078-0.687 114.742 12.078 231.101 12.078 345.842 0 2.055-0.219 4.117-0.328 6.172-0.328 3.672 0 7.328 0.352 10.906 1.016v-22.484c0-50.758-19.766-98.468-55.648-134.359-17.062-17.062-36.812-30.484-58.289-39.867-0.836-0.273-1.641-0.617-2.414-1.031-23.008-9.672-47.937-14.742-73.648-14.742-104.765 0-189.999 85.234-189.999 189.999zM474 314.104c22.633 0 44.734 3.391 65.742 9.937v-38.398c-0.008-0.148 0-0.297 0-0.445v-13.344l-65.742-78.148-65.734 78.148v13.352c0 0.195 0 0.398 0 0.594v38.336c20.766-6.516 42.844-10.031 65.734-10.031zM200.001 60.543c0 63.484 31.562 121.835 82.711 156.796l70.234-121.234c2.031-3.508 5.391-6.039 9.32-7.031 3.93-0.984 8.094-0.336 11.539 1.789l41.539 25.672-23.211-150.531h-192.132zM422.493-33.996l26.398 171.265 25.101 15.508 25.101-15.516 26.414-171.257zM823.241-33.996h-45.242v94.539c0 32.375-6.953 63.695-20.664 93.086-3.5 7.508-12.43 10.758-19.937 7.25-7.508-3.5-10.75-12.43-7.25-19.937 11.844-25.391 17.851-52.437 17.851-80.398v-94.539h-192.132l-23.219 150.507 41.484-25.648c7.125-4.398 16.586-2.148 20.875 5.242l70.258 121.289c11.742-8.023 22.891-17.601 33.125-28.844 2.961-3.25 7.023-4.906 11.094-4.906 3.609 0 7.219 1.297 10.094 3.906 6.133 5.578 6.578 15.070 1 21.195-4.109 4.516-8.383 8.836-12.812 12.961v136.374c0.289-0.086 8.516-4 19.742-4 39.937 2.484 66.398-7.352 95.734 14.164zM709.030 24.011h-109.398c-8.289 0-15-6.719-15-15 0-8.289 6.711-15 15-15h109.398c8.281 0 15 6.711 15 15 0 8.281-6.719 15-15 15zM535.891 725.001c0 34.133-27.766 61.89-61.89 61.89-34.133 0-61.89-27.758-61.89-61.89 0-34.125 27.758-61.89 61.89-61.89 34.125 0 61.89 27.766 61.89 61.89zM442.11 725.001c0 17.586 14.305 31.89 31.89 31.89s31.89-14.305 31.89-31.89-14.305-31.89-31.89-31.89-31.89 14.305-31.89 31.89z" />
<glyph unicode="&#xe901;" glyph-name="arrow-pointing-north" d="M560.024 911.276c-26.544 64.972-69.59 64.972-96.155 0l-162.144-396.97c-26.565-64.972-4.491-92.342 49.296-61.095l60.735 35.293c20.231 11.757 30.251 3.347 25.866-19.638-7.52-39.53-15.401-110.412-10.401-224.383-2.097-94.841 6.694-171.909 13.6-216.417 3.58-23.112 6.715-62.62 21.205-80.987 11.63-14.765 88.253-14.765 99.883 0 14.49 18.367 16.227 58.087 18.981 81.305 6.037 50.757 15.104 138.926 15.825 216.1 1.102 115.644-5.783 185.277-12.011 224.001-3.707 23.091 7.245 31.776 27.476 20.019 16.651-9.681 37.793-21.947 60.777-35.293 53.787-31.247 75.882-3.898 49.317 61.095l-162.249 396.97z" />
<glyph unicode="&#xe902;" glyph-name="black-envelope" d="M80.98 764.037l368.841-292.162c16.725-13.233 39.773-19.115 62.16-18.012 22.35-1.103 45.398 4.742 62.123 18.012l368.841 292.162c29.554 23.269 22.864 42.347-14.63 42.347h-832.595c-37.531 0-44.221-19.078-14.74-42.347zM969.596 686.953l-403.064-306.020c-15.071-11.322-34.811-16.836-54.477-16.578-19.703-0.257-39.443 5.293-54.514 16.578l-403.138 306.020c-29.922 22.68-54.404 10.513-54.404-27.018v-502.093c0-37.531 30.731-68.262 68.262-68.262h887.476c37.531 0 68.262 30.731 68.262 68.262v502.093c0 37.531-24.482 49.698-54.404 27.018z" />
<glyph unicode="&#xe903;" glyph-name="brainstorming" d="M35.31 801.103h35.31v-35.31h-35.31zM0 765.793h35.31v-35.31h-35.31zM35.31 730.483h35.31v-35.31h-35.31zM70.621 765.793h35.31v-35.31h-35.31zM194.207 960h35.31v-35.31h-35.31zM158.897 924.69h35.31v-35.31h-35.31zM194.207 889.379h35.31v-35.31h-35.31zM229.517 924.69h35.31v-35.31h-35.31zM408.879 158.914c-2.155-7.431-3.397-15.112-3.397-22.966v-58.069l31.25 43.767c-5.526 11.293-10.379 23.034-14.457 35.043zM370.172 359.724c0 9.741-7.905 17.655-17.655 17.655-9.741 0-17.655-7.914-17.655-17.655v-15.276c5.724-1.569 11.672-2.379 17.655-2.379 9.75 0 17.655 7.914 17.655 17.655zM158.31 77.241h211.862v-35.31h-211.862zM264.241-64c46.034 0 85.172 29.534 99.759 70.621h-199.509c14.586-41.086 53.724-70.621 99.75-70.621zM175.966 377.379c-9.741 0-17.655-7.914-17.655-17.655s7.914-17.655 17.655-17.655c6.060 0 11.974 0.793 17.655 2.31v15.345c0 9.741-7.905 17.655-17.655 17.655zM279.767 336.897l-15.526 15.517-15.5-15.517c-6.034-6.034-12.69-11.233-19.81-15.517v-208.828h70.621v208.931c-7.164 4.293-13.836 9.466-19.784 15.414zM421.905 235.147c68.466 50.517 107.75 128.095 107.75 212.853 0 17.871-1.853 35.612-5.388 52.966h-206.474c-77.879 0-141.241 63.362-141.241 141.241 0 21.431 4.94 41.698 13.526 59.905-100.181-29.578-176.733-118.078-188.397-223.991-10.457-94.595 28.629-185.009 104.552-241.828 33.103-24.819 52.078-61.543 52.078-100.81v-22.931h35.31v195.707c-5.767-1.009-11.664-1.5-17.655-1.5-29.198 0-52.966 23.767-52.966 52.966s23.767 52.966 52.966 52.966c26.871 0 49.155-20.147 52.526-46.095l35.75 35.75 35.759-35.75c3.388 25.966 25.629 46.095 52.517 46.095 29.207 0 52.966-23.767 52.966-52.966s-23.759-52.966-52.966-52.966c-5.931 0-11.845 0.526-17.655 1.552v-195.759h35.31v23.397c0 38.767 18.862 74.922 51.733 99.198zM423.724 642.207h35.31v-35.31h-35.31zM959.716 330.155c-5.121 17.069-11.914 33.526-20.216 48.94l-5.207 9.69 35.983 50.353-61.81 61.828h-348.25c3.086-17.405 4.75-35.138 4.75-52.966 0-24.31-3.052-48.302-8.828-71.517l27.052-22.164c-23.129-28.267-35.879-63.983-35.879-100.526 0-87.621 71.276-158.897 158.897-158.897 36.543 0 72.259 12.75 100.509 35.879l22.388-27.319c-34.569-28.284-78.216-43.871-122.897-43.871-107.078 0-194.207 87.129-194.207 194.207 0 9.336 0.828 18.612 2.172 27.776-19.086-28.569-43.060-54.009-71.293-74.828-6.069-4.483-11.474-9.534-16.172-14.991l22.81-3.793 3.181-10.526c5.121-17.069 11.914-33.526 20.216-48.94l5.207-9.69-35.983-50.353 78.741-78.741 50.353 35.983 9.69-5.207c15.414-8.302 31.888-15.078 48.94-20.216l10.526-3.181 10.172-61.086h111.31l10.19 61.103 10.526 3.181c17.069 5.121 33.526 11.914 48.94 20.216l9.69 5.207 50.353-35.983 78.741 78.741-35.983 50.353 5.207 9.69c8.302 15.414 15.078 31.888 20.216 48.94l3.181 10.526 61.069 10.172v111.31l-61.103 10.19zM518.957 41.56l-24.966 24.966 24.966 24.966 24.966-24.966zM723.862-28.69h-35.31v35.31h35.31zM706.207 130.207c-68.129 0-123.586 55.457-123.586 123.586s55.457 123.586 123.586 123.586 123.586-55.457 123.586-123.586-55.457-123.586-123.586-123.586zM829.224 153.284c23.129 28.25 35.879 63.966 35.879 100.509 0 87.621-71.276 158.897-158.897 158.897-36.543 0-72.259-12.75-100.509-35.879l-22.388 27.319c34.569 28.284 78.216 43.871 122.897 43.871 107.078 0 194.207-87.129 194.207-194.207 0-44.681-15.586-88.328-43.871-122.897zM893.457 41.56l-24.966 24.966 24.966 24.966 24.966-24.966zM893.457 416.078l-24.966 24.966 24.966 24.966 24.966-24.966zM988.69 236.138h-35.31v35.31h35.31zM794.483 253.793c0-48.75-39.526-88.276-88.276-88.276s-88.276 39.526-88.276 88.276 39.526 88.276 88.276 88.276 88.276-39.526 88.276-88.276zM211.862 642.207c0-58.422 47.509-105.931 105.931-105.931h600.276c58.422 0 105.931 47.509 105.931 105.931 0 53.957-40.397 99.172-93.94 105.19l-19.198 2.155 4.043 19.776c2.086 10.328 3.164 21.043 3.164 31.776 0 87.621-71.276 158.897-158.897 158.897-64 0-121.466-38.086-146.414-97.034l-9.302-22.017-18.31 15.379c-25.371 21.31-57.612 33.052-90.802 33.052-72.741 0-133.155-54.483-140.5-126.75l-1.836-17.966-17.94 2.241c-6.121 0.862-11.207 1.233-16.276 1.233-58.422 0-105.931-47.509-105.931-105.931zM388.414 642.207h35.31v35.31h35.31v-35.31h35.31v-35.31h-35.31v-35.31h-35.31v35.31h-35.31z" />
<glyph unicode="&#xe904;" glyph-name="calendar" d="M373.086 395.064c0 12.827-10.405 23.22-23.243 23.22h-81.108c-12.823 0-23.23-10.392-23.23-23.22v-81.097c0-12.844 10.407-23.24 23.23-23.24h81.108c12.838 0 23.243 10.396 23.243 23.24v81.097zM575.785 395.064c0 12.827-10.407 23.22-23.22 23.22h-81.118c-12.823 0-23.23-10.392-23.23-23.22v-81.097c0-12.844 10.407-23.24 23.23-23.24h81.118c12.813 0 23.22 10.396 23.22 23.24v81.097zM778.495 395.064c0 12.827-10.407 23.22-23.23 23.22h-81.108c-12.838 0-23.243-10.392-23.243-23.22v-81.097c0-12.844 10.405-23.24 23.243-23.24h81.108c12.823 0 23.23 10.396 23.23 23.24v81.097zM373.086 192.344c0 12.848-10.405 23.232-23.243 23.232h-81.108c-12.823 0-23.23-10.384-23.23-23.232v-81.083c0-12.836 10.407-23.23 23.23-23.23h81.108c12.838 0 23.243 10.396 23.243 23.23v81.083zM575.785 192.344c0 12.848-10.407 23.232-23.22 23.232h-81.118c-12.823 0-23.23-10.384-23.23-23.232v-81.083c0-12.836 10.407-23.23 23.23-23.23h81.118c12.813 0 23.22 10.396 23.22 23.23v81.083zM778.495 192.344c0 12.848-10.407 23.232-23.22 23.232h-81.118c-12.838 0-23.243-10.384-23.243-23.232v-81.083c0-12.836 10.405-23.23 23.243-23.23h81.118c12.813 0 23.22 10.396 23.22 23.23v81.083zM923.524 845.981v-123.87c0-55.988-45.42-101.105-101.399-101.105h-63.965c-55.984 0-102.005 45.117-102.005 101.105v124.314h-288.309v-124.314c0-55.988-46.020-101.105-101.995-101.105h-63.978c-55.977 0-101.395 45.117-101.395 101.105v123.87c-48.925-1.475-89.127-41.958-89.127-91.718v-725.935c0-50.695 41.090-92.331 91.785-92.331h817.728c50.62 0 91.785 41.721 91.785 92.331v725.935c0 49.76-40.2 90.243-89.125 91.718zM893.814 73.534c0-21.908-17.763-39.682-39.68-39.682h-686.015c-21.917 0-39.68 17.774-39.68 39.682v374.971c0 21.917 17.761 39.691 39.68 39.691h686.013c21.917 0 39.68-17.774 39.68-39.691l0.002-374.971zM201.648 687.413h63.271c19.205 0 34.776 15.548 34.776 34.753v203.069c0 19.207-15.571 34.765-34.776 34.765h-63.271c-19.207 0-34.776-15.559-34.776-34.765v-203.069c0-19.205 15.569-34.753 34.776-34.753zM757.346 687.413h63.271c19.192 0 34.763 15.548 34.763 34.753v203.069c0.002 19.207-15.569 34.765-34.763 34.765h-63.271c-19.202 0-34.774-15.559-34.774-34.765v-203.069c0-19.205 15.571-34.753 34.774-34.753z" />
<glyph unicode="&#xe905;" glyph-name="call-answer" d="M1001.042 150.739l-158.141 158.158c-31.499 31.372-83.661 30.419-116.257-2.189l-79.672-79.654c-5.034 2.774-10.244 5.672-15.721 8.746-50.312 27.877-119.173 66.086-191.634 138.601-72.676 72.667-110.921 141.634-138.883 191.978-2.951 5.334-5.778 10.476-8.57 15.36l79.76 79.713c32.646 32.655 33.546 84.803 2.121 116.266l-158.141 158.176c-31.425 31.419-83.611 30.466-116.257-2.189l-44.569-44.825 1.218-1.209c-14.945-19.069-27.433-41.063-36.726-64.78-8.567-22.576-13.9-44.119-16.339-65.707-20.881-173.112 58.226-331.323 272.912-546.013 296.762-296.741 535.913-274.324 546.23-273.23 22.47 2.686 44.005 8.055 65.889 16.554 23.511 9.185 45.49 21.655 64.548 36.568l0.974-0.865 45.152 44.213c32.578 32.649 33.517 84.814 2.106 116.328z" />
<glyph unicode="&#xe906;" glyph-name="chronometer-outline" d="M439.248 447.97c0-44.391 36.036-80.427 80.427-80.427 31.189 0 57.917 17.947 71.282 43.864l0.223-0.203 146.801 264.887-257.709-158.056 0.243-0.243c-24.518-13.81-41.268-39.727-41.268-69.821zM843.697 831.207c-82.374 72.032-188.861 118.025-310.536 124.9v-122.223c101.396-6.449 161.119-38.652 221.125-88.904l89.411 86.227zM901.128 486.074h122.101c-8.193 121.675-55.788 221.652-129.706 303.58l-86.39-85.842c52.037-59.621 86.268-136.621 93.994-217.738zM901.676 425.237c-12.918-202.792-180.931-363.668-386.157-363.668-213.642 0.020-393.843 173.306-393.843 386.928 0 203.36 168.095 369.751 350.608 385.366v122.223c-263.63-15.798-472.283-237.612-472.283-508.117 0-280.746 231.589-508.056 512.314-508.056 272.391 0 498.666 221.713 511.665 485.343h-122.304z" />
<glyph unicode="&#xe907;" glyph-name="cleaning-service" d="M907.988 651.090l46.249 17.226c10.572 3.938 22.338-1.44 26.273-12.014 3.938-10.572-1.44-22.336-12.014-26.273l-46.249-17.226c-2.349-0.876-4.757-1.29-7.127-1.29-8.289 0-16.085 5.082-19.146 13.304-3.938 10.572 1.44 22.336 12.014 26.273zM851.635 672.484c2.753-1.259 5.638-1.854 8.48-1.854 7.747 0 15.16 4.433 18.59 11.94l20.52 44.888c4.691 10.26 0.176 22.382-10.084 27.072-10.26 4.688-22.382 0.171-27.072-10.086l-20.52-44.888c-4.688-10.26-0.176-22.382 10.086-27.072zM663.545 722.145c-50.299 36.176-104.748 68.266-162.746 95.887l-83.247-183.35c-4.663-10.27-16.774-14.821-27.047-10.155-10.27 4.663-14.821 16.772-10.155 27.044l83.245 183.348c-58.9 25.441-119.112 45.343-179.311 59.395 28.497-131.297 36.163-270.854 18.26-348.359-2.538-10.993-13.488-17.844-24.504-15.308-10.993 2.541-17.844 13.511-15.306 24.501 17.494 75.732 8.222 217.422-22.405 348.387-49.623 9.236-99.003 14.438-147.425 15.436l-3.261-7.18c45.81-63.406 85.231-179.865 106.484-315.776 15.584-99.659 22.535-224.904-1.152-294.722 0.357-0.207 0.71-0.411 1.067-0.618 0.123-0.069 0.245-0.14 0.368-0.212 12.323-7.099 25.073-13.646 38.078-19.55 13.546-6.146 27.415-11.621 41.408-16.353 25.040 42.812 81.447 97.335 158.604 152.785 85.847 61.696 182.183 114.112 264.305 143.812 10.618 3.843 22.323-1.655 26.158-12.262 3.835-10.61-1.652-22.32-12.265-26.158-77.571-28.056-172.659-79.856-254.356-138.572-80.51-57.86-137.773-114.717-153.175-152.095-3.986-9.67-14.629-14.767-24.667-11.81-0.506 0.151-1.011 0.299-1.517 0.449l-111.839-246.315c-7.221-15.906-20.203-28.048-36.559-34.189-7.482-2.809-15.262-4.208-23.020-4.208-9.203 0-18.383 1.969-27.014 5.888-32.828 14.905-47.411 53.749-32.509 86.587l111.844 246.31c-0.447 0.281-0.894 0.562-1.338 0.845-8.83 5.605-11.999 16.976-7.341 26.342 22.545 45.343 24.378 160.974 4.555 287.733-21.061 134.701-61.542 252.16-105.639 306.54-4.875 6.014-5.934 14.267-2.732 21.317l13.835 30.456c3.312 7.306 10.587 11.986 18.597 11.986 0.033 0 0.064 0 0.1 0 59.163-0.286 119.76-6.631 180.559-18.745 0.426-0.071 0.85-0.158 1.269-0.255 79.749-15.998 159.812-41.921 237.342-77.119 0.023-0.010 0.046-0.020 0.069-0.033 0.023-0.010 0.046-0.020 0.066-0.031 95.369-43.31 181.974-98.137 257.413-162.95 8.557-7.352 9.532-20.249 2.181-28.806s-20.252-9.535-28.806-2.181c-10.002 8.595-20.209 17.006-30.619 25.234-118.767-63.141-231.535-149.414-277.034-212.43-6.606-9.149-19.368-11.21-28.523-4.604-9.147 6.603-11.207 19.374-4.604 28.52 46.566 64.489 156.694 150.584 274.307 215.545zM85.247 11.587c-5.592-12.323-0.123-26.904 12.198-32.499 5.968-2.712 12.637-2.934 18.779-0.631 6.136 2.303 11.011 6.861 13.72 12.829l110.264 242.85c-7.607 3-15.15 6.195-22.604 9.576-7.449 3.381-14.823 6.958-22.093 10.712l-110.264-242.837zM780.884 517.774c-10.257 4.691-22.382 0.179-27.075-10.081l-20.528-44.886c-4.693-10.26-0.179-22.382 10.081-27.075 2.753-1.259 5.641-1.856 8.483-1.856 7.747 0 15.158 4.43 18.59 11.938l20.528 44.886c4.696 10.263 0.181 22.382-10.079 27.075zM965.575 549.315l-44.891 20.525c-10.263 4.686-22.384 0.176-27.072-10.084-4.691-10.263-0.176-22.382 10.084-27.075l44.891-20.525c2.753-1.259 5.638-1.854 8.48-1.854 7.747 0 15.16 4.433 18.59 11.94 4.693 10.263 0.179 22.384-10.081 27.072zM872.224 503.405c-3.938 10.574-15.699 15.952-26.273 12.014s-15.952-15.699-12.014-26.273l17.223-46.252c3.062-8.222 10.858-13.304 19.146-13.304 2.37 0 4.778 0.414 7.127 1.29 10.574 3.938 15.952 15.699 12.014 26.273l-17.223 46.252zM840.335 530.467c-7.842-2.921-15.993-4.374-24.118-4.374-9.77 0-19.509 2.102-28.658 6.284-16.761 7.663-29.534 21.399-35.966 38.673-6.437 17.272-5.758 36.015 1.905 52.779 7.666 16.764 21.401 29.537 38.676 35.969 17.272 6.435 36.015 5.756 52.779-1.91s29.534-21.401 35.969-38.676 5.756-36.017-1.91-52.779c-7.666-16.761-21.401-29.534-38.676-35.966zM841.857 583.425c3.128 6.836 3.404 14.481 0.779 21.529-2.622 7.048-7.834 12.65-14.673 15.778-3.731 1.706-7.707 2.564-11.69 2.564-3.317 0-6.642-0.592-9.841-1.785-7.048-2.622-12.65-7.834-15.776-14.67-3.128-6.836-3.401-14.484-0.779-21.531 2.625-7.050 7.834-12.653 14.67-15.778 6.838-3.126 14.481-3.404 21.531-0.776h0.003c7.048 2.625 12.65 7.834 15.776 14.67z" />
<glyph unicode="&#xe908;" glyph-name="electric-heating-tool-with-water-system" d="M145.455 960h-11.636c-16.058 0-29.091-13.033-29.091-29.091v-965.819c0-16.058 13.033-29.091 29.091-29.091h11.636c16.058 0 29.091 13.033 29.091 29.091v965.819c0 16.058-13.033 29.091-29.091 29.091zM238.546 960h-11.636c-16.058 0-29.091-13.033-29.091-29.091v-802.908c0-16.058 13.033-29.091 29.091-29.091h11.636c16.058 0 29.091 13.033 29.091 29.091v802.908c0 16.058-13.033 29.091-29.091 29.091zM331.637 960h-11.636c-16.058 0-29.091-13.033-29.091-29.091v-802.908c0-16.058 13.033-29.091 29.091-29.091h11.636c16.058 0 29.091 13.033 29.091 29.091v802.908c0 16.058-13.033 29.091-29.091 29.091zM424.728 960h-11.636c-16.058 0-29.091-13.033-29.091-29.091v-802.908c0-16.058 13.033-29.091 29.091-29.091h11.636c16.058 0 29.091 13.033 29.091 29.091v802.908c0 16.058-13.033 29.091-29.091 29.091zM517.819 960h-11.636c-16.058 0-29.091-13.033-29.091-29.091v-802.908c0-16.058 13.033-29.091 29.091-29.091h11.636c16.058 0 29.091 13.033 29.091 29.091v802.908c0 16.058-13.035 29.091-29.091 29.091zM610.91 960h-11.636c-16.058 0-29.091-13.033-29.091-29.091v-802.908c0-16.058 13.033-29.091 29.091-29.091h11.636c16.058 0 29.091 13.033 29.091 29.091v802.908c0 16.058-13.035 29.091-29.091 29.091zM704.001 960h-11.636c-16.058 0-29.091-13.033-29.091-29.091v-802.908c0-16.058 13.033-29.091 29.091-29.091h11.636c16.058 0 29.091 13.033 29.091 29.091v802.908c0 16.058-13.035 29.091-29.091 29.091zM797.092 960h-11.636c-16.058 0-29.091-13.033-29.091-29.091v-802.908c0-16.058 13.033-29.091 29.091-29.091h11.636c16.058 0 29.091 13.033 29.091 29.091v802.908c0 16.058-13.035 29.091-29.091 29.091zM890.183 960h-11.636c-16.058 0-29.091-13.033-29.091-29.091v-965.819c0-16.058 13.033-29.091 29.091-29.091h11.636c16.058 0 29.091 13.033 29.091 29.091v965.819c0 16.058-13.035 29.091-29.091 29.091z" />
<glyph unicode="&#xe909;" glyph-name="energy-1" d="M780.787 960h-384.012l-153.551-552.864h153.864l-130.826-471.136h46.087l445.365 552.887h-225.619z" />
<glyph unicode="&#xe90a;" glyph-name="energy" d="M888.32 471.148l-47.164 81.664c-4.195 7.273-13.492 9.766-20.742 5.57-7.273-4.195-9.766-13.492-5.57-20.766l47.156-81.656c2.133-3.766 2.133-8.148 0-11.914l-168.828-292.43c-2.125-3.664-6.078-5.93-10.313-5.93h-166.578l131.797 172.234c5.102 6.664 3.828 16.18-2.836 21.289-6.664 5.102-16.188 3.828-21.289-2.836-181.078-236.633-101.203-132.258-277.641-362.805-12.57-12.141-30.523-0.648-30.523 12.625 0 5.672-11.891-21.148 164.313 348.031 13.445 28.289-7.289 60.633-38.25 60.633h-156.188c-7.438 0-12.039 6.258-12.039 12.055 0 5.016-21.555-30.242 328.18 516.336 11.289 17.406 37.383 5.18 32.477-14-38.102-107.547-63.68-179.719-116.867-329.844-9.836-27.563 10.773-56.516 39.945-56.516h185.039c10.016 0 15.555-11.336 9.523-19.289l-91.039-118.953c-5.109-6.664-3.828-16.203 2.836-21.313 6.664-5.086 16.203-3.828 21.289 2.836l91.039 118.977c21.375 27.945 1.258 68.125-33.648 68.125h-185.039c-7.43 0-12.008 6.203-12.008 11.953 0 3.023-3.852-8.828 66.281 189.094h71.227c4.234 0 8.188-2.273 10.313-5.938l91.281-158.117c4.195-7.273 13.492-9.766 20.766-5.57 7.25 4.195 9.742 13.492 5.555 20.766l-91.289 158.117c-7.531 13.047-21.57 21.125-36.625 21.125h-60.469c43.953 124.055 42.945 118.266 42.945 129.57 0 46.063-62.25 66.852-89.094 25.406l-99.141-154.977h-131.898c-15.055 0-29.094-8.078-36.633-21.125-183.477-317.82-174.5-297.672-174.5-313.578 0-15.531-3.625-5.039 105.563-194.172 2.82-4.859 7.922-7.594 13.172-7.594 11.617 0 19 12.656 13.148 22.789-107.789 186.695-101.492 174.367-101.492 178.977 0 4.734-9.867-13.898 170.43 298.383 2.125 3.664 6.078 5.938 10.313 5.938h112.453l-207.688-324.641c-18.086-28.25 2.359-65.211 35.695-65.211h156.188c8.758 0 14.609-9.078 10.82-17.156l-96.227-201.625c-10.25 0-17.328-1.352-21.555 5.93l-38.555 66.773c-4.195 7.273-13.492 9.766-20.742 5.57-7.273-4.195-9.766-13.492-5.57-20.766l38.547-66.766c7.016-12.117 19.609-19.953 33.43-21.008l-50.75-106.313c-18.281-34.664 9.031-71.109 43.172-71.109 17.039 0 30.742 10.078 35.414 16.305l123.188 160.992h189.836c15.055 0 29.094 8.086 36.625 21.133l168.836 292.445c7.461 12.891 7.656 29.016 0 42.273z" />
<glyph unicode="&#xe90b;" glyph-name="energy-saving" d="M931.061 366.948c-0.042 0.011-0.081 0.021-0.124 0.029v0c-10.071 2.445-20.227-3.712-22.714-13.775-52.417-218.855-272.326-353.777-491.178-301.359-129.583 31.037-235.806 123.468-284.448 247.52l67.405 14.196c10.211 1.948 16.909 11.806 14.961 22.017-0.639 3.347-2.174 6.459-4.445 9.001l-60.464 67.51-59.939 66.248c-6.365 8.221-18.187 9.722-26.407 3.357-3.010-2.329-5.242-5.518-6.401-9.141l-28.182-86.122-28.182-85.807c-3.244-9.877 2.135-20.513 12.009-23.757 3.149-1.033 6.514-1.22 9.758-0.534l72.557 15.248c86.409-230.148 343.030-346.671 573.178-260.259 138.34 51.941 241.886 169.148 276.372 312.837 2.495 10.095-3.665 20.298-13.757 22.792zM659.321 724.823h-200.952c-1.522-0.008-2.873-0.978-3.365-2.419l-93.693-286.653c-0.697-1.848 0.234-3.909 2.082-4.608 0.376-0.142 0.776-0.221 1.178-0.229h85.386l-65.722-255.527c-0.618-1.874 0.4-3.896 2.277-4.514 1.317-0.434 2.766-0.068 3.717 0.939l260.365 302.427c1.278 1.504 1.094 3.762-0.41 5.040-0.62 0.528-1.404 0.828-2.219 0.849h-110.939l125.345 239.544c0.3 0.476 0.481 1.017 0.526 1.577 0 1.974-1.598 3.575-3.575 3.575zM662.897 721.247v0 0zM1011.045 618.816c-3.149 1.033-6.514 1.22-9.758 0.534v0.315l-72.557-15.248c-86.411 230.148-343.030 346.671-573.178 260.259-138.34-51.941-241.886-169.148-276.372-312.837-2.040-10.192 4.569-20.111 14.761-22.151 9.672-1.937 19.196 3.92 21.833 13.423 52.417 218.855 272.326 353.777 491.181 301.359 129.583-31.037 235.806-123.468 284.445-247.52l-67.405-14.196c-10.211-1.948-16.909-11.806-14.961-22.017 0.639-3.347 2.174-6.459 4.445-9.001l120.087-134.073c6.365-8.221 18.187-9.722 26.407-3.357 3.010 2.329 5.242 5.518 6.401 9.141l28.182 86.122 28.497 85.491c3.244 9.877-2.132 20.511-12.009 23.755z" />
<glyph unicode="&#xe90c;" glyph-name="engineer" d="M362.953 546.695c0-8.461-6.859-15.328-15.328-15.328-8.461 0-15.328 6.867-15.328 15.328 0 8.469 6.867 15.328 15.328 15.328 8.469 0 15.328-6.859 15.328-15.328zM529.172 546.695c0-8.461-6.859-15.328-15.328-15.328-8.461 0-15.328 6.867-15.328 15.328 0 8.469 6.867 15.328 15.328 15.328 8.469 0 15.328-6.859 15.328-15.328zM433.008 383.078c30.953 0.125 53.070 14.055 63.5 22.352 6.625 5.273 7.727 14.914 2.453 21.539s-14.914 7.727-21.539 2.453c-7.313-5.82-22.836-15.602-44.531-15.688-0.094 0-0.18 0-0.273 0-23.219 0-39.68 11.461-45.688 16.398-6.547 5.375-16.203 4.43-21.578-2.117-5.375-6.539-4.422-16.195 2.117-21.57 10.641-8.742 33.219-23.367 65.141-23.367zM741.141 367.57c-78.125 0-146.688-41.742-184.563-104.086-14.891 4.953-26.68 15.633-26.68 32.469v29.258l44.828 40.625c28.445 25.781 47.422 60.852 53.453 98.758l5.203 32.781c29.633 2.383 53.016 27.25 53.016 57.484 0 23.766-14.445 44.461-35.414 53.219l2.086 13.125h20.586c12.984 0 23.555 10.563 23.555 23.555v24.773c0 20.789-13.078 38.57-31.438 45.578-5.555 106.461-83.773 196.133-188.227 216.063v1.547c0 15.047-12.234 27.281-27.273 27.281h-32.961c-15.039 0-27.273-12.234-27.273-27.281v-1.57c-36.914-7.055-71.664-23.008-101.203-46.625-6.617-5.289-7.688-14.93-2.398-21.547 3.023-3.781 7.484-5.75 11.977-5.75 3.359 0 6.734 1.094 9.563 3.352 24.094 19.266 52.18 32.648 82.063 39.273v-128.773c-9.719-2.742-16.859-11.664-16.859-22.242v-30.523h-140.461c2.586 34.273 13.797 67.148 32.836 95.883 4.68 7.063 2.75 16.57-4.313 21.25-7.055 4.672-16.563 2.742-21.242-4.313-22.969-34.664-36.023-74.547-38.172-116.016-18.367-7-31.453-24.797-31.453-45.594v-24.766c0-12.992 10.563-23.563 23.555-23.563h20.586l1.727-10.859c-24.18-6.875-41.945-29.133-41.945-55.477 0-31.813 25.883-57.695 57.695-57.695 0.742 0 1.477 0.070 2.219 0.102l5.195-32.68c6.023-37.906 25-72.977 53.445-98.758l44.828-40.617v-29.258c0-13.938-9.203-26.664-22.414-31.055l-140.82-46.703c-8.031-2.664-12.391-11.336-9.727-19.367 2.133-6.438 8.125-10.516 14.547-10.516 1.602 0 3.227 0.258 4.828 0.789l91.086 30.203c13.313-18.195 27.102-37.18 40.5-55.625 16.227-22.344 33.008-45.453 48.875-67.055 4.797-6.516 12.172-10.672 20.234-11.414 0.859-0.078 1.719-0.117 2.57-0.117 7.109 0 13.992 2.688 19.211 7.586 4.219 3.961 8.18 8.18 11.883 12.602v-138.633h-204.938v85.094c0 8.469-6.867 15.328-15.328 15.328-8.469 0-15.328-6.859-15.328-15.328v-85.094h-66.992c-10.594 0-19.211 8.625-19.211 19.211v97.523c0 29.688 12.563 58.242 34.461 78.336 6.242 5.719 6.656 15.414 0.938 21.656-5.727 6.242-15.422 6.656-21.656 0.93-28.219-25.875-44.398-62.664-44.398-100.922v-97.516c0-27.5 22.375-49.867 49.867-49.867h635.852c3.281 0 6.555 0.344 9.742 0.984 53.734 5.102 104.063 30.266 140.414 70.828 5.648 6.305 5.117 15.992-1.188 21.648-6.305 5.648-15.992 5.117-21.641-1.188-35.102-39.156-85.359-61.617-137.906-61.617-102.078 0-185.125 83.047-185.125 185.125 0 7.648 0.477 15.188 1.375 22.594 0.008 0.055 0.016 0.102 0.023 0.156 11.242 91.391 89.352 162.383 183.727 162.383 102.078 0 185.125-83.047 185.125-185.133 0-23.383-4.297-46.172-12.781-67.727-3.094-7.883 0.781-16.781 8.656-19.875 7.883-3.102 16.781 0.773 19.875 8.648 9.891 25.148 14.906 51.711 14.906 78.953 0 118.984-96.797 215.789-215.781 215.789zM479.953 117.008c-6.445 6.352-12.117 13.445-16.875 21.125-5.195 8.391-9.258 17.352-12.109 26.742l81.898 75.109c3.055-1.617 6.281-2.992 9.555-4.094-7.164-16.875-12.234-34.852-14.898-53.586-15.828-21.797-32.125-44.234-47.57-65.297zM433.797 190.734l-76.219 69.875c7.602 11.313 10.867 24.367 10.758 37.891 20.203-13.727 42.203-13.992 65.453-13.992 23.258 0 45.242 0.258 65.453 13.984-0.109-13.516 3.164-26.57 10.766-37.875zM655.734 554.859c0-11.445-7.156-21.227-17.211-25.164l7.32 46.055c6.063-4.977 9.891-12.523 9.891-20.891zM634.813 718.305h-140.406v30.531c0 10.578-7.148 19.5-16.859 22.242v128.789c86.195-19.078 150.531-93.211 157.266-181.563zM446.891 929.344v-157.383h-26.195v146.484c0 0.047 0 0.094 0 0.141v10.758zM403.836 741.305h59.914v-22.992h-59.914zM204.953 554.859c0 11.039 6.664 20.539 16.18 24.727l8.203-51.625c-13.664 1.336-24.383 12.891-24.383 26.898zM269.688 469.406l-24.125 151.797h188.227c8.469 0 15.328 6.859 15.328 15.328 0 8.461-6.859 15.328-15.328 15.328h-232.758v17.664c0 10 8.133 18.125 18.125 18.125h429.273c9.992 0 18.125-8.133 18.125-18.125v-17.664h-160.406c-8.469 0-15.328-6.867-15.328-15.328 0-8.469 6.859-15.328 15.328-15.328h115.875l-24.125-151.797c-4.93-31.031-20.469-59.75-43.758-80.852l-66.562-60.32c-9.289-8.43-21.32-13.070-33.867-13.070h-39.836c-12.547 0-24.578 4.641-33.867 13.070l-66.563 60.32c-23.289 21.102-38.828 49.82-43.758 80.852zM404.508 138.133c-4.742-7.664-10.414-14.766-16.875-21.141-15.328 20.891-70.367 96.688-81.875 112.445 9.641 3.195 19.938 5.773 28.953 10.547l81.914-75.102c-2.859-9.383-6.914-18.352-12.117-26.75zM630.398-33.344h-181.281v138.625c3.711-4.422 7.672-8.633 11.883-12.586 5.211-4.898 12.094-7.602 19.211-7.602 0.852 0 1.703 0.039 2.555 0.117 8.070 0.734 15.461 4.898 20.273 11.43 7.688 10.477 15.586 21.297 23.539 32.219 7.305-68.875 47.148-128.172 103.82-162.203zM612.828 166.078c-5.43 0-10.703-2.242-14.469-6.148-3.773-3.914-5.82-9.273-5.617-14.711 1.797-49.086 27.75-94.039 69.43-120.25 3.203-2.016 6.938-3.063 10.688-3.063 1.609 0 3.219 0.188 4.797 0.578 5.281 1.313 9.867 4.758 12.586 9.469l38.906 67.391c7.891-1.836 16.070-1.836 23.961 0l38.922-67.406c2.719-4.711 7.305-8.164 12.586-9.469 1.57-0.391 3.188-0.578 4.789-0.578 3.75 0 7.484 1.047 10.688 3.063 41.688 26.211 67.648 71.164 69.445 120.258 0.203 5.438-1.844 10.805-5.617 14.719-3.766 3.906-9.039 6.148-14.469 6.148h-77.82c-2.352 7.734-6.461 14.836-11.977 20.742l38.914 67.414c2.719 4.695 3.406 10.383 1.906 15.594-1.5 5.227-5.125 9.688-9.938 12.234-21.227 11.242-45.227 17.188-69.398 17.188s-48.18-5.953-69.422-17.203c-4.813-2.555-8.438-7.016-9.938-12.242-1.492-5.211-0.797-10.891 1.914-15.586l38.922-67.422c-5.508-5.906-9.609-13-11.969-20.719zM669.43 57.227c-24.859 19.070-41.102 47.203-45.141 78.195h66.328c2.352-7.695 6.5-14.867 11.984-20.75zM730.063 131.562c-24.82 14.367-2.555 52.516 22.141 38.383 24.492-14.016 2.898-52.906-22.141-38.383zM812.836 57.211l-33.172 57.445c5.5 5.883 9.641 13.063 11.992 20.766h66.336c-4.047-31-20.289-59.133-45.156-78.211zM741.141 268.594c15.508 0 30.922-3.078 45.148-8.961l-33.164-57.445c-7.836 1.82-16.156 1.82-23.992-0.008l-33.156 57.438c14.227 5.898 29.648 8.977 45.164 8.977z" />
<glyph unicode="&#xe90d;" glyph-name="envelope-of-white-paper" d="M997.142 823.431c-17.903 17.907-39.431 26.856-64.569 26.856h-841.143c-25.142 0-46.67-8.949-64.575-26.856-17.907-17.903-26.856-39.429-26.856-64.575v-621.719c0-25.15 8.949-46.658 26.856-64.561 17.903-17.919 39.431-26.864 64.575-26.864h841.145c25.138 0 46.664 8.945 64.569 26.864 17.911 17.903 26.856 39.423 26.856 64.561v621.719c-0.002 25.146-8.945 46.672-26.858 64.575zM950.849 137.151c0-4.954-1.807-9.239-5.432-12.857-3.623-3.623-7.904-5.416-12.849-5.416h-841.143c-4.952 0-9.239 1.793-12.855 5.416-3.621 3.619-5.428 7.904-5.428 12.857v438.854c12.189-13.714 25.332-26.287 39.429-37.713 102.098-78.475 183.239-142.852 243.431-193.141 19.428-16.384 35.24-29.143 47.429-38.288 12.189-9.149 28.665-18.383 49.424-27.712 20.761-9.343 40.287-13.992 58.573-13.992h1.143c18.281 0 37.816 4.649 58.569 13.992 20.767 9.329 37.253 18.562 49.438 27.712 12.187 9.145 28 21.904 47.431 38.288 60.192 50.289 141.323 114.666 243.425 193.141 14.096 11.424 27.246 23.999 39.417 37.713v-438.854zM950.849 744.003v-6.285c0-22.474-8.848-47.525-26.561-75.141-17.715-27.616-36.865-49.62-57.424-65.996-73.534-57.914-149.903-118.288-229.157-181.144-2.282-1.903-8.955-7.519-20.007-16.848-11.036-9.343-19.802-16.494-26.281-21.44-6.487-4.96-14.953-10.958-25.425-17.999-10.48-7.041-20.097-12.289-28.857-15.713-8.76-3.416-16.952-5.128-24.568-5.128h-1.143c-7.618 0-15.802 1.711-24.568 5.128-8.76 3.424-18.383 8.672-28.855 15.713-10.47 7.043-18.948 13.042-25.425 17.999-6.473 4.946-15.239 12.097-26.283 21.44-11.048 9.329-17.721 14.945-20.005 16.848-79.236 62.858-155.613 123.23-229.141 181.144-56.003 44.184-83.999 98.284-83.999 162.284 0 4.948 1.807 9.237 5.428 12.851 3.621 3.621 7.904 5.432 12.855 5.432h841.145c3.042-1.711 5.712-2.188 8-1.431 2.288 0.771 3.999-0.662 5.136-4.279 1.143-3.621 2.192-5.332 3.142-5.144 0.955 0.192 1.529-2.188 1.719-7.147 0.178-4.95 0.274-7.441 0.274-7.441v-7.704h-0.002z" />
<glyph unicode="&#xe90e;" glyph-name="factory" d="M1021.492-59.402v529.345l-180.767-185.156v185.156l-180.767-185.156v185.156l-191.634-198.322-21.734 444.291h-159.033l-21.734-453.068h-50.155l-21.734 453.068h-156.944l-36.989-775.523 1021.492 0.209zM982.413-15.935h-936.647l32.81 688.379h76.278l21.734-453.068h137.3l21.734 453.068h73.979l21.734-453.277h50.155l139.389 143.778v-143.778h41.378l139.389 143.778v-143.778h41.378l139.389 143.778v-378.88zM869.146 175.7h69.799v-43.468h-69.799v43.468zM686.289 175.7h69.799v-43.468h-69.799v43.468zM503.223 175.7h69.799v-43.468h-69.799v43.468zM389.956 855.301l58.932 71.889-32.81 28.421-69.59-85.055v-122.044h43.468zM124.343 855.301l60.813 71.889-34.691 28.421-69.799-85.055v-122.044h43.677z" />
<glyph unicode="&#xe90f;" glyph-name="firewood" d="M210 236c-49.626 0-90-40.374-90-90s40.374-90 90-90 90 40.374 90 90-40.374 90-90 90zM210 116c-16.542 0-30 13.458-30 30s13.458 30 30 30 30-13.458 30-30-13.458-30-30-30zM814 356h-68.802c36.92 30.244 65.834 70.53 82.208 117.714 16.134 46.49 11.884 103.278-11.37 151.912-19.472 40.722-19.062 87.236 1.126 127.612l21.672 43.346c4.65 9.3 4.152 20.344-1.314 29.188s-15.122 14.228-25.52 14.228h-60c-43.4 0-82.554-18.526-109.968-48.086-40.298 98.508-137.192 168.086-250.032 168.086h-120c-12.134 0-23.074-7.31-27.716-18.52s-2.076-24.114 6.504-32.694l100.982-100.982c27.52-27.522 22.926-73.288-9.392-94.832-61.916-41.274-100.378-114.676-100.378-191.556 0-60.708 22.666-117.244 63.822-159.19 2.088-2.128 4.224-4.194 6.386-6.226h-102.208c-115.794 0-210-94.206-210-210s94.206-210 210-210h604c115.794 0 210 94.206 210 210 0 115.81-94.234 210-210 210zM302 521.416c0 56.208 28.914 111.804 73.66 141.634 63.918 42.614 72.746 132.972 18.536 187.18l-49.77 49.77h47.574c115.794 0 210-94.206 210-210 0-16.568 13.432-30 30-30s30 13.432 30 30c0 49.626 40.374 90 90 90h11.46c-28.492-57.038-29.060-122.736-1.554-180.258 16.344-34.18 19.722-74.932 8.816-106.356-19.866-57.246-63.59-101.378-117.714-122.904 5.78 14.046 8.992 29.412 8.992 45.518 0 17.72-3.782 34.798-11.24 50.756l-81.544 175.864c-4.914 10.598-15.534 17.38-27.216 17.38s-22.302-6.782-27.216-17.38l-81.528-175.83c-7.47-15.968-11.256-33.056-11.256-50.79 0-20.75 5.298-40.286 14.608-57.33-78.552 13.642-134.608 79.036-134.608 162.746zM602 416c0-33.084-26.916-60-60-60s-60 26.916-60 60c0 8.884 1.886 17.42 5.646 25.462l54.354 117.222 54.352-117.222c0.014-0.030 0.028-0.060 0.042-0.090 3.72-7.952 5.606-16.488 5.606-25.372zM210-4c-82.71 0-150 67.29-150 150s67.29 150 150 150c83.814 0 152-67.29 152-150s-68.186-150-152-150zM814-4h-455.794c39.338 38.146 63.794 91.292 63.794 150 0 10.186-0.75 20.198-2.172 30h152.172c16.568 0 30 13.432 30 30s-13.432 30-30 30h-170.482c-10.812 22.484-25.542 42.77-43.312 60 109.788 0 410.964 0 455.794 0 48.968 0 92.524-23.592 119.918-60h-59.918c-16.568 0-30-13.432-30-30s13.432-30 30-30h86.982c1.976-9.696 3.018-19.728 3.018-30 0-82.71-67.29-150-150-150zM814 116h-182c-16.568 0-30-13.432-30-30s13.432-30 30-30h182c16.568 0 30 13.432 30 30s-13.432 30-30 30z" />
<glyph unicode="&#xe910;" glyph-name="gear-1" d="M1024 352.477v191.047l-151.313 23.070c-5.93 18.055-13.219 35.648-21.789 52.594l90.68 123.305-135.086 135.086-123.305-90.68c-16.953 8.57-34.539 15.859-52.594 21.789l-23.070 151.313h-191.047l-23.070-151.313c-18.055-5.93-35.648-13.219-52.594-21.789l-123.305 90.68-135.086-135.086 90.68-123.305c-8.57-16.953-15.859-34.539-21.789-52.594l-151.313-23.070v-191.047l151.313-23.070c5.93-18.055 13.219-35.648 21.789-52.594l-90.68-123.305 135.086-135.086 123.305 90.68c16.953-8.57 34.539-15.859 52.594-21.789l23.070-151.313h191.047l23.070 151.313c18.055 5.93 35.641 13.219 52.594 21.789l123.305-90.68 135.086 135.086-90.68 123.305c8.57 16.953 15.859 34.539 21.789 52.594zM862.711 159.484l-62.195-62.195-112.813 82.969-16.953-9.727c-23.477-13.461-48.648-23.891-74.813-30.992l-18.859-5.117-21.102-138.422h-87.953l-21.102 138.422-18.859 5.117c-26.156 7.102-51.328 17.531-74.813 30.992l-16.953 9.727-112.813-82.961-62.195 62.188 82.969 112.813-9.727 16.961c-13.461 23.477-23.891 48.641-30.992 74.805l-5.117 18.859-138.422 21.102v87.953l138.422 21.102 5.117 18.859c7.102 26.164 17.531 51.336 30.992 74.813l9.727 16.953-82.969 112.813 62.195 62.195 112.813-82.969 16.953 9.727c23.477 13.461 48.648 23.891 74.813 30.992l18.859 5.117 21.102 138.422h87.953l21.102-138.422 18.859-5.117c26.164-7.102 51.336-17.531 74.813-30.992l16.953-9.727 112.82 82.969 62.188-62.195-82.969-112.813 9.727-16.953c13.461-23.477 23.891-48.648 30.992-74.813l5.117-18.859 138.422-21.102v-87.953l-138.422-21.102-5.117-18.859c-7.102-26.164-17.531-51.336-30.992-74.813l-9.727-16.953zM512 700c-138.953 0-252-113.047-252-252s113.047-252 252-252 252 113.047 252 252-113.047 252-252 252zM512 256c-105.867 0-192 86.133-192 192s86.133 192 192 192 192-86.133 192-192-86.133-192-192-192zM512 572c-68.375 0-124-55.625-124-124s55.625-124 124-124 124 55.625 124 124-55.625 124-124 124zM512 384c-35.289 0-64 28.711-64 64s28.711 64 64 64 64-28.711 64-64-28.711-64-64-64z" />
<glyph unicode="&#xe911;" glyph-name="gear" d="M980.28 602.778l-85.736 17.144c-5.678 18.094-12.96 35.668-21.734 52.456l48.504 72.756c14.33 21.496 11.474 50.352-6.796 68.624l-36.76 36.76c-18.268 18.27-47.126 21.132-68.624 6.796l-72.756-48.504c-16.79 8.774-34.366 16.056-52.456 21.734l-17.148 85.736c-5.066 25.334-27.492 43.72-53.326 43.72h-51.99c-25.832 0-48.262-18.386-53.328-43.72l-17.148-85.736c-18.092-5.678-35.668-12.96-52.456-21.734l-72.756 48.504c-21.496 14.33-50.358 11.476-68.624-6.792l-36.762-36.764c-18.266-18.268-21.122-47.126-6.792-68.62l48.504-72.756c-8.774-16.79-16.056-34.364-21.734-52.456l-85.736-17.146c-25.332-5.068-43.72-27.494-43.72-53.33v-51.986c0-25.834 18.386-48.264 43.72-53.33l55.51-11.1c8.758-1.748 17.274 3.928 19.024 12.684s-3.928 17.274-12.684 19.024l-55.51 11.1c-10.268 2.050-17.722 11.146-17.722 21.618v51.986c0 10.472 7.454 19.568 17.722 21.62l95.29 19.058c5.968 1.194 10.76 5.638 12.4 11.5 6.21 22.2 15.090 43.624 26.386 63.68 2.988 5.304 2.742 11.838-0.634 16.904l-53.91 80.866c-5.81 8.714-4.65 20.416 2.756 27.818l36.762 36.764c7.406 7.406 19.104 8.562 27.818 2.752l80.866-53.908c5.064-3.378 11.598-3.622 16.904-0.636 20.058 11.298 41.482 20.174 63.68 26.384 5.862 1.64 10.304 6.43 11.5 12.4l19.058 95.29c2.054 10.27 11.146 17.724 21.618 17.724h51.99c10.472 0 19.566-7.454 21.618-17.724l19.058-95.29c1.194-5.97 5.638-10.76 11.5-12.4 22.196-6.21 43.622-15.086 63.68-26.384 5.306-2.986 11.838-2.742 16.904 0.636l80.868 53.91c8.714 5.81 20.414 4.654 27.818-2.756l36.76-36.76c7.408-7.408 8.564-19.106 2.756-27.82l-53.91-80.866c-3.378-5.066-3.624-11.6-0.634-16.904 11.296-20.056 20.174-41.48 26.386-63.68 1.64-5.862 6.432-10.304 12.4-11.5l95.29-19.058c10.27-2.052 17.722-11.148 17.722-21.62v-51.986c0-10.472-7.454-19.568-17.722-21.62l-95.29-19.058c-5.968-1.194-10.76-5.638-12.4-11.498-6.21-22.196-15.088-43.62-26.386-63.68-2.988-5.306-2.742-11.838 0.634-16.904l53.91-80.866c5.81-8.714 4.65-20.416-2.756-27.818l-36.762-36.764c-7.406-7.406-19.102-8.562-27.818-2.752l-80.866 53.908c-7.428 4.954-17.468 2.948-22.42-4.484-4.954-7.428-2.944-17.468 4.484-22.42l80.866-53.91c9.164-6.11 19.662-9.096 30.114-9.096 14.060 0 28.030 5.408 38.508 15.888l36.762 36.764c18.266 18.268 21.122 47.126 6.792 68.62l-48.504 72.756c8.774 16.792 16.056 34.366 21.734 52.456l85.736 17.144c25.332 5.068 43.72 27.496 43.72 53.33v51.986c-0.002 25.84-18.388 48.266-43.722 53.336zM641.348 399.494h-150.906c-8.93 0-16.168-7.236-16.168-16.168s7.24-16.168 16.168-16.168h150.906c14.86 0 26.948-12.088 26.948-26.948v-21.558c0-14.86-12.088-26.948-26.948-26.948h-150.906c-8.93 0-16.168-7.238-16.168-16.168 0-8.932 7.24-16.168 16.168-16.168h150.906c14.86 0 26.948-12.088 26.948-26.948v-21.558c0-14.86-12.088-26.948-26.948-26.948h-150.906c-8.93 0-16.168-7.236-16.168-16.168s7.24-16.168 16.168-16.168h150.906c14.86 0 26.948-12.088 26.948-26.948v-21.558c0-14.86-12.088-26.948-26.948-26.948h-150.906c-8.93 0-16.168-7.236-16.168-16.168s7.24-16.168 16.168-16.168h150.906c14.86 0 26.948-12.088 26.948-26.948v-21.558c0-14.86-12.088-26.948-26.948-26.948h-292.88c-15.288 0-29.676 5.94-40.512 16.72-17.106 17.020-39.686 26.396-63.58 26.396h-39.576v177.852c0 8.932-7.24 16.168-16.168 16.168s-16.168-7.236-16.168-16.168v-215.578c0-2.972-2.418-5.39-5.39-5.39h-48.506v220.972c0 8.932-7.24 16.168-16.168 16.168s-16.168-7.236-16.168-16.168v-220.968h-48.506c-2.97 0-5.39 2.416-5.39 5.39v366.482c0 2.972 2.418 5.39 5.39 5.39h129.348c2.97 0 5.39-2.416 5.39-5.39v-86.232c0-8.932 7.24-16.168 16.168-16.168s16.168 7.236 16.168 16.168v48.506h38.984c25.556 0 48.158 16.292 56.242 40.536l6.018 18.064c18.648 55.93 28.102 114.186 28.102 173.148 0 14.86 12.088 26.948 26.948 26.948 12.958 0 25.138-5.046 34.3-14.208s14.206-21.342 14.206-34.3v-172.458c0-8.93 7.24-16.168 16.168-16.168 8.93 0 16.168 7.236 16.168 16.168v172.458c0 21.594-8.408 41.898-23.678 57.168s-35.572 23.68-57.168 23.68c-32.69 0-59.284-26.596-59.284-59.284 0-55.48-8.896-110.294-26.442-162.922l-6.022-18.064c-3.674-11.020-13.946-18.426-25.564-18.426h-38.978v5.39c0 20.802-16.926 37.726-37.726 37.726h-129.348c-20.8-0.004-37.726-16.928-37.726-37.73v-366.484c0-20.8 16.926-37.726 37.726-37.726h129.348c20.802 0 37.726 16.926 37.726 37.726v5.39h39.574c15.288 0 29.768-6.032 40.772-16.982 16.938-16.852 39.426-26.134 63.32-26.134h292.882c32.69 0 59.284 26.596 59.284 59.284v21.558c0 16.97-7.168 32.298-18.634 43.116 11.466 10.818 18.634 26.146 18.634 43.116v21.558c0 16.97-7.168 32.298-18.634 43.116 11.466 10.818 18.634 26.146 18.634 43.116v21.558c0 16.97-7.168 32.298-18.634 43.116 11.466 10.818 18.634 26.146 18.634 43.116v21.558c0 32.686-26.594 59.282-59.284 59.282zM587.402 440.45c4.238 0 8.53 0.326 12.846 1 45.216 7.060 76.258 49.586 69.2 94.798-7.056 45.216-49.592 76.266-94.796 69.204-45.216-7.060-76.258-49.586-69.2-94.798 6.384-40.898 41.788-70.202 81.95-70.204zM579.64 573.504c27.6 4.286 53.554-14.642 57.862-42.238 4.308-27.598-14.64-53.554-42.236-57.864-27.596-4.308-53.554 14.642-57.862 42.238-4.308 27.598 14.64 53.554 42.236 57.864zM733.658 367.158c4.258 0 8.506 1.67 11.682 4.988 47.564 49.7 68.764 117.14 58.168 185.028-5.384 34.488-18.416 66.226-38.742 94.326-5.232 7.232-15.338 8.86-22.578 3.626-7.234-5.234-8.858-15.34-3.626-22.578 17.304-23.928 28.406-50.966 32.994-80.36 9.028-57.85-9.042-115.324-49.58-157.686-6.174-6.45-5.95-16.686 0.502-22.86 3.136-2.996 7.162-4.484 11.18-4.484zM722.288 675.404c5.376 7.13 3.954 17.268-3.178 22.642-47.676 35.944-106.412 50.68-165.382 41.46-67.668-10.56-125.34-51.122-158.23-111.288-4.284-7.836-1.404-17.658 6.43-21.944 2.462-1.346 5.12-1.986 7.742-1.984 5.72 0 11.264 3.042 14.2 8.414 28.034 51.28 77.182 85.852 134.844 94.85 50.252 7.85 100.302-4.704 140.928-35.332 7.134-5.37 17.272-3.95 22.646 3.182z" />
<glyph unicode="&#xe912;" glyph-name="geothermal-energy-1" d="M484.635 738.151c0 78.113 50.803 103.234 87.898 121.577 38.092 18.838 57.973 30.66 57.973 73.398 0 14.843 12.030 26.874 26.874 26.874s26.874-12.030 26.874-26.874c0-78.113-50.803-103.234-87.898-121.577-38.095-18.838-57.973-30.66-57.973-73.398 0-14.843-12.030-26.874-26.874-26.874s-26.874 12.030-26.874 26.874zM979.56 76.747c-42.478 71.457-86.214 143.748-128.507 213.658-21.251 35.13-42.505 70.257-63.691 105.426l-158.71 263.488c-5.426 9.012-15.62 14.025-26.059 12.837-59.463-6.772-121.816-6.763-181.296 0.015-10.388 1.191-20.591-3.804-26.029-12.78-31.911-52.69-64.1-106.372-95.232-158.283-21.051-35.106-42.105-70.212-63.222-105.276l-194.667-323.157c-28.567-48.429-44.819-79.761-29.66-106.471 15.861-27.946 54.115-29.564 115.211-29.893 100.983-0.54 310.084-0.209 345.402-0.149 0.979-0.107 1.962-0.161 2.938-0.161 8.752 0 17.334 4.27 22.493 12.132 8.411 12.819 63.897 96.187 108.946 163.822 1.538 2.236 2.744 4.718 3.55 7.372 0.982 3.225 1.332 6.56 1.084 9.842-0.287 3.834-1.374 7.444-3.099 10.663-1.729 3.243-4.148 6.166-7.205 8.54-2.49 1.938-5.333 3.449-8.414 4.419-2.771 0.875-5.679 1.311-8.45 1.236h-152.35c-2.675 0.021-7.525 0.060-12.711 0.2 1.445 2.278 3.049 4.76 4.816 7.444 9.179 13.995 61.511 92.637 100.717 151.529l12.777-64.745c2.875-14.563 17.005-24.010 31.571-21.162 14.56 2.875 24.034 17.008 21.159 31.571l-25.237 127.85c-1.171 7.092-5.163 13.7-11.618 17.996-2.35 1.562-4.855 2.708-7.426 3.452-3.998 1.168-8.325 1.415-12.687 0.552l-128.689-25.396c-14.563-2.875-24.037-17.008-21.165-31.568 2.873-14.563 17.002-24.007 31.568-21.165l65.339 12.893c-39.283-59.009-91.971-138.185-101.242-152.32-15.679-23.867-30.487-46.417-18.776-68.319 11.818-22.108 39.331-22.323 71.395-22.571h102.744c-29.687-44.592-59.003-88.653-73.419-110.394-55.942-0.087-240.801-0.328-333.73 0.167-14.909 0.078-51.38 0.275-66.363 3.906 4.348 13.311 20.245 40.257 26.689 51.191l194.545 322.945c21.138 35.097 42.207 70.23 63.276 105.363 28.232 47.086 57.343 95.626 86.298 143.524 52.475-4.885 106.513-4.885 158.982-0.018l149.908-248.875c21.203-35.196 42.472-70.355 63.742-105.512 42.243-69.824 85.921-142.022 128.298-213.303 6.477-10.893 24.47-41.153 29.077-55.479-14.216-3.338-47.719-3.628-61.29-3.744h-273.357c-14.843 0-26.874-12.030-26.874-26.874s12.030-26.874 26.874-26.874h273.587c58.229 0.505 94.706 2.21 110.224 29.773 15.33 27.217-1.875 59.973-32.031 110.681z" />
<glyph unicode="&#xe913;" glyph-name="geothermal-energy" d="M899.309 328.545h-156.76v19.619c0 105.094-70.686 193.986-167.012 221.642v56.598c0 12.148-9.846 21.994-21.994 21.994h-83.088c-12.148 0-21.994-9.846-21.994-21.994v-56.598c-96.326-27.654-167.012-116.546-167.012-221.642v-19.619h-156.76c-12.148 0-21.994-9.846-21.994-21.994s9.846-21.994 21.994-21.994h315.718v-187.354c-15.489-17.128-24.936-39.816-24.936-64.674 0-53.225 43.304-96.529 96.529-96.529s96.529 43.304 96.529 96.529c0 24.856-9.448 47.546-24.936 64.674v187.354h315.718c12.148 0 21.994 9.846 21.994 21.994s-9.846 21.994-21.994 21.994zM492.449 604.407h39.1v-26.532c-6.447 0.545-12.964 0.838-19.55 0.838s-13.103-0.293-19.55-0.838v26.532zM511.999-20.012c-28.971 0-52.541 23.57-52.541 52.541s23.57 52.541 52.541 52.541c28.971 0 52.541-23.57 52.541-52.541s-23.568-52.541-52.541-52.541zM484.394 125.013v159.541h55.21v-159.541c-8.751 2.617-18.013 4.042-27.605 4.042s-18.854-1.425-27.605-4.042zM698.561 328.545h-114.97v62.719c0 12.146-9.846 21.994-21.994 21.994s-21.994-9.846-21.994-21.994v-62.719h-55.21v62.719c0 12.148-9.846 21.994-21.994 21.994s-21.994-9.846-21.994-21.994v-62.719h-114.97v19.619c0 102.87 83.692 186.562 186.562 186.562s186.562-83.692 186.562-186.562v-19.619zM458.646 723.602c1.456-32.979 25.762-54.249 28.529-56.563 4.137-3.463 9.189-5.159 14.208-5.159 6.285 0 12.522 2.656 16.855 7.835 7.798 9.313 6.652 23.116-2.661 30.914-0.127 0.11-12.522 11.087-12.998 25.173-0.303 8.954 4.499 18.448 14.269 28.218 20.513 20.513 29.487 41.588 26.676 62.636-3.851 28.834-28.507 43.712-31.305 45.312-10.545 6.036-23.981 2.378-30.014-8.165s-2.378-23.981 8.165-30.012c0.086-0.049 8.568-5.579 9.553-12.959 0.875-6.559-4.159-15.689-14.181-25.708-18.944-18.949-28.059-39.648-27.094-61.522zM585.478 820.923c-0.477-14.086-12.871-25.063-12.998-25.173-9.313-7.798-10.459-21.6-2.661-30.914 4.333-5.178 10.569-7.835 16.855-7.835 5.020 0 10.071 1.696 14.208 5.159 2.766 2.314 27.072 23.585 28.529 56.563 0.965 21.874-8.15 42.573-27.094 61.522-10.022 10.019-15.056 19.149-14.181 25.708 0.985 7.38 9.467 12.91 9.553 12.959 10.542 6.031 14.198 19.47 8.165 30.012s-19.47 14.201-30.014 8.165c-2.798-1.601-27.453-16.478-31.305-45.312-2.81-21.048 6.163-42.123 26.676-62.636 9.77-9.77 14.572-19.264 14.269-28.218zM697.432 179.553l-0.904-0.904v55.935c0 12.148-9.846 21.994-21.994 21.994s-21.994-9.846-21.994-21.994v-55.935l-0.904 0.904c-8.592 8.59-22.514 8.587-31.107 0-8.59-8.59-8.59-22.514 0-31.104l38.45-38.45c4.296-4.294 9.924-6.442 15.552-6.442s11.256 2.146 15.552 6.442l38.45 38.45c8.59 8.59 8.59 22.514 0 31.104-8.585 8.587-22.507 8.587-31.102 0zM365.018 242.805c-8.592 8.59-22.514 8.59-31.107 0l-38.45-38.45c-8.59-8.59-8.59-22.514 0-31.104 8.592-8.59 22.514-8.59 31.107 0l0.904 0.904v-55.935c0-12.148 9.846-21.994 21.994-21.994s21.994 9.846 21.994 21.994v55.935l0.904-0.904c4.296-4.294 9.924-6.442 15.552-6.442s11.256 2.148 15.552 6.442c8.59 8.59 8.59 22.514 0 31.104l-38.45 38.45z" />
<glyph unicode="&#xe914;" glyph-name="guarantee" d="M1011.588 389.816c-5.721 20.723-11.107 40.311-11.107 58.185s5.387 37.462 11.107 58.185c9.104 32.988 18.497 67.111 7.256 100.277-11.664 34.502-40.734 57.050-68.847 78.82-16.85 13.066-32.765 25.398-43.094 38.976-10.506 13.845-17.941 32.32-25.776 51.886-12.933 32.142-26.288 65.397-56.204 86.276-29.427 20.567-66.154 22.548-101.613 24.441-22.126 1.18-43.049 2.315-60.567 7.768-16.383 5.097-33.344 15.67-51.285 26.867-28.87 18.030-61.613 38.464-99.476 38.464s-70.606-20.434-99.476-38.486c-17.941-11.196-34.858-21.792-51.263-26.867-17.54-5.453-38.464-6.589-60.589-7.768-35.481-1.914-72.164-3.873-101.613-24.441-29.916-20.879-43.272-54.112-56.204-86.254-7.88-19.566-15.314-38.063-25.821-51.908-10.328-13.623-26.243-25.954-43.094-39.042-28.091-21.792-57.117-44.296-68.781-78.753-11.241-33.188-1.848-67.289 7.234-100.3 5.721-20.723 11.107-40.289 11.107-58.163s-5.387-37.462-11.107-58.185c-9.082-32.988-18.475-67.111-7.234-100.322 11.664-34.457 40.712-57.006 68.803-78.775 16.85-13.044 32.765-25.398 43.071-38.976 10.529-13.845 17.963-32.32 25.821-51.908 12.933-32.142 26.31-65.397 56.249-86.321 29.404-20.523 66.11-22.482 101.568-24.374 22.126-1.18 43.049-2.315 60.567-7.768 16.383-5.097 33.322-15.67 51.24-26.844 28.892-18.008 61.635-38.464 99.521-38.464s70.65 20.456 99.565 38.486c17.919 11.174 34.836 21.747 51.24 26.844 17.518 5.453 38.441 6.589 60.567 7.768 35.481 1.892 72.164 3.851 101.568 24.374 29.983 20.924 43.338 54.223 56.271 86.388 7.857 19.544 15.27 38.019 25.732 51.819 10.328 13.578 26.243 25.932 43.094 38.976 28.113 21.792 57.161 44.318 68.847 78.797 11.241 33.211 1.825 67.312-7.279 100.322zM976.683 303.762c-7.368-21.769-30.005-39.31-53.956-57.874-18.364-14.246-37.373-28.981-51.263-47.234-14.090-18.609-22.994-40.734-31.608-62.17-10.974-27.334-21.346-53.133-40.423-66.443-19.009-13.266-47.879-14.802-78.463-16.427-23.884-1.269-48.614-2.582-71.452-9.705-21.836-6.834-42.047-19.41-61.569-31.608-26.154-16.338-50.84-31.741-75.97-31.741s-49.794 15.403-75.948 31.741c-19.499 12.176-39.688 24.774-61.546 31.608-22.838 7.101-47.568 8.436-71.452 9.705-30.584 1.625-59.476 3.183-78.463 16.427-19.054 13.311-29.449 39.109-40.423 66.421-8.614 21.436-17.54 43.583-31.652 62.192-13.867 18.252-32.877 32.988-51.263 47.256-23.929 18.564-46.544 36.082-53.912 57.851-6.878 20.278 0.356 46.499 7.991 74.234 6.233 22.682 12.688 46.099 12.688 70.027s-6.455 47.323-12.688 70.005c-7.657 27.735-14.869 53.934-7.991 74.212 7.368 21.769 29.961 39.287 53.889 57.851 18.386 14.268 37.418 29.026 51.263 47.301 14.157 18.609 23.060 40.779 31.697 62.214 10.951 27.312 21.324 53.088 40.356 66.354 19.009 13.289 47.924 14.825 78.53 16.449 23.862 1.291 48.592 2.604 71.407 9.727 21.881 6.811 42.092 19.432 61.635 31.63 26.11 16.271 50.773 31.675 75.881 31.675s49.794-15.403 75.926-31.719c19.544-12.22 39.733-24.819 61.613-31.63 22.816-7.101 47.523-8.414 71.407-9.705 30.606-1.625 59.499-3.205 78.508-16.472 19.054-13.311 29.427-39.087 40.378-66.354 8.637-21.458 17.518-43.606 31.675-62.214 13.867-18.252 32.877-32.988 51.24-47.234 23.951-18.586 46.588-36.127 53.956-57.94 6.878-20.234-0.378-46.433-8.013-74.167-6.255-22.682-12.71-46.099-12.71-70.027s6.433-47.345 12.71-70.005c7.66-27.735 14.891-53.934 8.013-74.212zM511.982 781.888c-184.105 0-333.887-149.782-333.887-333.887s149.782-333.887 333.887-333.887 333.887 149.782 333.887 333.887-149.782 333.887-333.887 333.887zM511.982 158.633c-159.553 0-289.369 129.815-289.369 289.369s129.815 289.369 289.369 289.369c82.292 0 156.482-34.702 209.236-90.038l-212.129-298.517-114.924 114.924c-8.703 8.703-22.771 8.703-31.474 0s-8.703-22.771 0-31.474l133.555-133.555c4.185-4.207 9.861-6.522 15.737-6.522 0.601 0 1.247 0.022 1.87 0.089 6.522 0.534 12.487 3.94 16.271 9.282l220.298 310.025c32.053-46.566 50.929-102.882 50.929-163.582 0-159.553-129.815-289.369-289.369-289.369z" />
<glyph unicode="&#xe915;" glyph-name="headset" d="M240 554h-79.038c13.352 182 165.69 326 351.038 326 146.668 0 279.384-92.38 330.25-229.878 7.664-20.718 30.672-31.3 51.394-23.638 20.718 7.666 31.302 30.674 23.638 51.394-30.316 81.952-84.174 152.080-155.748 202.804-73.22 51.89-159.508 79.318-249.534 79.318-115.39 0-223.876-44.936-305.47-126.53-80.53-80.53-125.32-187.258-126.476-300.964-47.804-27.7-80.054-79.392-80.054-138.506v-136c0-88.224 71.776-160 160-160h80c22.092 0 40 17.908 40 40v376c0 22.092-17.908 40-40 40zM200 178h-40c-44.112 0-80 35.888-80 80v136c0 44.112 35.888 80 80 80h40v-296zM864 554h-80c-22.092 0-40-17.908-40-40v-418c0-22.056-17.944-40-40-40h-122v-1.268c-13.644 24.606-39.872 41.268-70 41.268-44.182 0-80-35.818-80-80s35.818-80 80-80c30.128 0 56.356 16.662 70 41.268v-1.268h122c66.168 0 120 53.832 120 120v2h40c88.224 0 160 71.776 160 160v136c0 88.224-71.776 160-160 160zM944 258c0-44.112-35.888-80-80-80h-40v296h40c44.112 0 80-35.888 80-80v-136z" />
<glyph unicode="&#xe916;" glyph-name="heating" d="M919.329 631.258c-14.847 0-26.892-12.052-26.892-26.888v-105.162h-30.058v23.966c0 59.594-48.494 108.084-108.073 108.084-32.368 0-61.357-14.382-81.196-36.982-19.836 22.6-48.828 36.982-81.181 36.982-32.368 0-61.375-14.382-81.196-36.982-19.836 22.6-48.835 36.982-81.196 36.982-32.353 0-61.36-14.382-81.189-36.982-19.828 22.6-48.835 36.982-81.196 36.982-59.586 0-108.077-48.494-108.077-108.084v-23.966h-54.35c-14.836 0-26.888-12.045-26.888-26.888 0-14.839 12.052-26.892 26.888-26.892h54.308v-401.341c0-59.594 48.494-108.084 108.077-108.084 32.361 0 61.368 14.374 81.196 36.975 19.828-22.6 48.828-36.975 81.189-36.975s61.36 14.374 81.189 36.975c19.825-22.6 48.835-36.975 81.189-36.975s61.375 14.374 81.196 36.975c19.817-22.6 48.843-36.975 81.196-36.975 59.594 0 108.084 48.494 108.084 108.084v401.322h56.934c14.843 0 26.888 12.052 26.888 26.888v132.054c0.049 14.854-12.015 26.907-26.843 26.907zM808.597 445.41v-401.341c0-29.952-24.352-54.308-54.29-54.308s-54.305 24.352-54.305 54.308v479.086c0 29.945 24.367 54.308 54.305 54.308s54.29-24.36 54.29-54.308v-77.745zM646.205 44.084c0-29.949-24.367-54.305-54.305-54.305s-54.308 24.352-54.308 54.305v479.071c0 29.945 24.367 54.308 54.308 54.308 29.934 0 54.305-24.36 54.305-54.308v-479.071zM483.824 44.084c0-29.949-24.36-54.305-54.297-54.305-29.934 0-54.297 24.352-54.297 54.305v479.071c0 29.945 24.363 54.308 54.297 54.308 29.937 0 54.297-24.36 54.297-54.308v-479.071zM321.431 44.084c0-29.949-24.371-54.305-54.305-54.305-29.937 0-54.297 24.352-54.297 54.305v479.071c0 29.945 24.36 54.308 54.297 54.308 29.934 0 54.305-24.36 54.305-54.308v-479.071zM331.867 950.982c-24.236-28.913-34.21-59.53-22.199-96.287 11.853-36.262 48.258-69.519 19.206-106.88-21.017-27.012 16.756-65.378 38.017-38.025 23.932 30.77 34.278 62.156 22.199 100.342-10.897 34.454-48.187 68.259-19.206 102.825 22.128 26.393-15.706 64.643-38.017 38.025zM528.248 709.795c23.951 30.77 34.278 62.156 22.199 100.342-10.889 34.454-48.19 68.259-19.206 102.825 22.128 26.393-15.721 64.643-38.017 38.025-24.236-28.913-34.206-59.53-22.195-96.287 11.853-36.262 48.258-69.519 19.206-106.88-21.036-27.015 16.734-65.378 38.014-38.025zM654.54 950.982c-24.228-28.913-34.206-59.53-22.199-96.287 11.868-36.262 48.265-69.519 19.224-106.88-21.025-27.012 16.737-65.378 38.006-38.025 23.932 30.77 34.281 62.156 22.199 100.342-10.904 34.454-48.198 68.259-19.206 102.825 22.128 26.393-15.702 64.643-38.025 38.025z" />
<glyph unicode="&#xe917;" glyph-name="hydro-power" d="M920.856 686.628h-174.548l26.050 273.372-234.108-383.702h173.026l-30.49-268.616zM871.020 495.85l-279.302-440.876 52.364 461.324h-212.724l187.082 306.628-114.844 137.074-306.956-366.376c-133.27-159.070-122.942-393.596 23.796-540.334 78.192-78.194 180.676-117.29 283.16-117.29s204.968 39.096 283.16 117.29c118.846 118.846 148.196 295.27 84.264 442.56zM291.188 124.040c-53.238 53.238-84.382 123.98-87.694 199.194s21.492 148.42 69.84 206.13l45.992-38.532c-38.692-46.184-58.542-104.766-55.892-164.958 2.652-60.192 27.574-116.804 70.178-159.408l-42.424-42.426z" />
<glyph unicode="&#xe918;" glyph-name="idea" d="M99.099 134.191c0-54.653 44.451-99.096 99.096-99.096 54.653 0 99.096 44.443 99.096 99.096s-44.443 99.096-99.096 99.096c-54.645 0-99.096-44.443-99.096-99.096zM198.196 200.255c36.435 0 66.064-29.629 66.064-66.064s-29.629-66.064-66.064-66.064c-36.427 0-66.064 29.629-66.064 66.064s29.637 66.064 66.064 66.064zM957.933 134.191h-165.16c-18.218 0-33.032 14.814-33.032 33.032v34.056c56.685 6.331 105.032 44.709 123.79 98.903 23.419 3.927 41.371 24.193 41.371 48.717 0 12.734-4.968 24.25-12.879 33.032 7.927 8.79 12.879 20.298 12.879 33.032 0 14.895-6.734 28.113-17.177 37.209 72.298 52.492 116.273 137.023 116.273 227.047 0 77.475-30.879 149.636-86.951 203.152-56.040 53.475-129.62 80.862-207.265 77.322-80.774-3.782-153.434-43.088-202.563-102.362-27.637 18.548-62.782 24.806-94.886 16.089-24.016 52.403-76.354 86.572-135.039 86.572-81.967 0-148.644-66.677-148.644-148.644 0-5.976 0.419-11.919 1.129-17.839-47.338-7.427-83.709-48.371-83.709-97.774 0-54.653 44.451-99.096 99.096-99.096h309.732c17.701-57.572 53.774-108.314 103.814-144.483-10.419-9.081-17.161-22.314-17.161-37.193 0-12.734 4.976-24.242 12.887-33.032-7.927-8.782-12.887-20.298-12.887-33.032 0-24.524 17.96-44.79 41.379-48.717 18.758-54.193 67.104-92.572 123.781-98.903v-34.056c0-36.435 29.637-66.064 66.064-66.064h165.16c18.218 0 33.032-14.814 33.032-33.032s-14.814-33.032-33.032-33.032h-429.417c-18.218 0-33.032 14.814-33.032 33.032v297.288c0 36.435-29.629 66.064-66.064 66.064h-181.676c-36.427 0-66.064-29.629-66.064-66.064v-33.032h-29.129l-11.863-43.355c-3.782-1.419-7.564-3.008-11.314-4.726l-39.056 22.314-64.548-64.54 22.314-39.064c-1.718-3.75-3.298-7.516-4.726-11.314l-43.355-11.855v-91.282l43.355-11.863c1.427-3.782 3.008-7.564 4.726-11.314l-22.314-39.056 64.548-64.548 39.056 22.314c3.75-1.718 7.516-3.306 11.314-4.726l11.863-43.371h91.282l11.863 43.355c3.774 1.419 7.556 3.008 11.306 4.726l39.064-22.314 64.54 64.548-22.306 39.056c1.718 3.75 3.298 7.516 4.718 11.314l43.371 11.863v91.282l-43.355 11.855c-1.419 3.782-3 7.564-4.718 11.314l22.314 39.064-64.548 64.54-39.064-22.314c-3.742 1.718-7.508 3.306-11.306 4.726l-11.863 43.371h-29.137v33.032c0 18.218 14.814 33.032 33.032 33.032h181.676c18.218 0 33.032-14.814 33.032-33.032v-297.288c0-36.435 29.637-66.064 66.064-66.064h429.417c36.435 0 66.064 29.629 66.064 66.064s-29.629 66.064-66.064 66.064zM594.58 414.963c0 9.121 7.403 16.516 16.516 16.516h264.256c9.121 0 16.516-7.395 16.516-16.516 0-9.113-7.395-16.516-16.516-16.516h-264.256c-9.113 0-16.516 7.403-16.516 16.516zM708.015 761.8l35.209 52.806 35.218-52.806zM693.676 728.768h33.032v-66.064h33.032v66.064h33.032v-264.256h-33.032v165.16h-33.032v-165.16h-33.032zM165.164 629.671c-36.427 0-66.064 29.629-66.064 66.064s29.637 66.064 66.064 66.064c36.435 0 66.064-29.629 66.064-66.064h33.032c0 48.443-34.959 88.806-80.975 97.362-0.96 6.016-1.605 12.105-1.605 18.25 0 63.733 51.879 115.612 115.612 115.612 50.032 0 94.161-31.976 109.782-79.54l5.685-17.258 16.645 7.282c25.484 11.145 55.427 8.129 78.37-6.823-25.927-39.871-42.282-86.362-44.919-136.136-1.177-22.056 0.363-43.742 4.129-64.83h-301.821zM495.847 692.744c6.661 125.314 110.096 228.087 235.49 233.934 68.475 3.403 133.451-21.008 182.894-68.225 49.5-47.201 76.733-110.854 76.733-179.233 0-87.927-47.467-170.047-123.886-214.329l-0.661-0.379h-40.613v285.78l-82.58 123.87-82.58-123.87v-285.78h-40.613l-0.661 0.379c-81.153 47.024-128.491 134.33-123.523 227.853zM611.096 365.415h264.256c9.121 0 16.516-7.395 16.516-16.516 0-9.113-7.395-16.516-16.516-16.516h-264.256c-9.113 0-16.516 7.403-16.516 16.516 0 9.121 7.403 16.516 16.516 16.516zM639.096 299.351h208.265c-18.847-39.701-58.943-66.064-104.136-66.064-45.185 0-85.306 26.363-104.128 66.064zM228.542 263.134l8.653-2.661c7.629-2.363 15.242-5.532 22.629-9.443l8.008-4.266 32.701 18.669 28.871-28.871-18.669-32.701 4.266-8.016c3.911-7.379 7.105-14.992 9.443-22.621l2.661-8.661 36.25-9.952v-40.847l-36.218-9.927-2.661-8.653c-2.355-7.629-5.532-15.25-9.443-22.629l-4.258-8.008 18.661-32.701-28.871-28.871-32.701 18.661-8.008-4.258c-7.387-3.919-15-7.105-22.629-9.452l-8.653-2.661-9.96-36.234h-40.847l-9.927 36.218-8.653 2.661c-7.629 2.363-15.242 5.532-22.629 9.452l-8.008 4.258-32.701-18.661-28.871 28.871 18.661 32.701-4.258 8.008c-3.911 7.379-7.105 15-9.452 22.629l-2.653 8.653-36.242 9.96v40.847l36.226 9.919 2.653 8.661c2.363 7.629 5.532 15.242 9.452 22.621l4.258 8.016-18.661 32.701 28.871 28.871 32.701-18.669 8.008 4.266c7.387 3.911 15 7.097 22.629 9.443l8.653 2.661 9.96 36.234h40.847zM895.046 527.406c83.701 83.701 83.701 219.926 0 303.643l-23.355-23.347c70.838-70.838 70.838-186.104 0-256.942z" />
<glyph unicode="&#xe919;" glyph-name="industrial-robot" d="M148.645 481.032h33.032v-33.032h-33.032v33.032zM115.613 530.581h33.032v-33.032h-33.032v33.032zM264.258 448h33.032v-33.032h-33.032v33.032zM330.323 481.032h33.032v-33.032h-33.032v33.032zM809.29 2.065c54.652 0 99.097 44.445 99.097 99.097s-44.445 99.097-99.097 99.097-99.097-44.445-99.097-99.097 44.445-99.097 99.097-99.097zM745.885 118.685l26.541-15.327 16.516 28.606-26.723 15.443c8.258 8.407 18.795 14.419 30.555 17.474v-30.687h33.032v30.687c11.743-3.055 22.297-9.067 30.555-17.474l-26.707-15.426 16.516-28.606 26.541 15.327c1.536-5.632 2.643-11.429 2.643-17.54s-1.107-11.908-2.659-17.524l-26.541 15.327-16.516-28.606 26.723-15.443c-8.258-8.407-18.812-14.419-30.555-17.474v30.687h-33.032v-30.687c-11.743 3.055-22.297 9.067-30.555 17.474l26.707 15.426-16.516 28.606-26.541-15.327c-1.536 5.632-2.643 11.429-2.643 17.54s1.107 11.908 2.659 17.524zM990.968-30.968v297.29h-33.032v99.097h-49.548v188.499c10.422 17.358 16.516 37.574 16.516 59.243 0 41.010-21.537 77.015-53.81 97.544l-149.289 166.829c-14.286 47.633-58.484 82.465-110.708 82.465-40.564 0-76.255-21.058-96.9-52.769l-192.33-182.701c-17.16-16.301-26.789-38.317-27.103-61.985-0.215-17.243 4.658-33.693 13.725-47.864l-88.939-88.939 23.354-23.354 88.427 88.427c15.096-10.851 32.718-16.549 50.49-16.533 21.124 0 42.298 7.697 59.062 23.172l145.276 134.111c4.971-1.107 10.058-1.866 15.261-2.296l92.854-104.448c-0.396-3.848-0.595-7.73-0.595-11.66 0-21.669 6.111-41.885 16.516-59.243v-188.499h-49.548v-99.097h-33.032v-297.29h-297.29v297.29h-33.032v33.032h33.032v33.032h-34.7c-7.68 37.64-41.026 66.065-80.913 66.065h-148.645v-66.065h-33.032v-33.032h33.032v-33.032h-33.032v-297.29h-33.032v-33.032h1024v33.032h-33.032zM99.097 365.419h115.613c21.504 0 39.672-13.857 46.509-33.032h-162.122v33.032zM99.097 299.355h165.161v-33.032h-165.161v33.032zM297.29 134.194h-33.032v-33.032h33.032v-132.129h-231.226v132.129h165.161v33.032h-165.161v99.097h231.226v-99.097zM891.871 613.161c0-45.535-37.046-82.581-82.581-82.581s-82.581 37.046-82.581 82.581c0 45.535 37.046 82.581 82.581 82.581s82.581-37.046 82.581-82.581zM875.355 518.425v-153.005h-132.129v153.005c18.746-13.114 41.505-20.876 66.065-20.876s47.319 7.763 66.065 20.876zM418.486 621.733c-21.405-19.753-54.255-19.109-74.851 1.486-10.389 10.389-16.021 24.213-15.822 38.895s6.161 28.358 16.813 38.466l150.891 143.36c0.165-42.017 22.908-78.716 56.65-98.816l-133.682-123.392zM610.981 761.806c-45.485 0.083-82.465 37.095-82.465 82.581 0 45.535 37.046 82.581 82.581 82.581s82.581-37.046 82.581-82.581c0-45.502-37.013-82.531-82.515-82.581h-0.182zM704.908 662.528l-62.761 70.606c42.463 11.875 75.066 47.385 82.729 91.433l85.768-95.86c-0.446 0-0.892 0.066-1.354 0.066-46.063 0-85.818-27.153-104.382-66.246zM693.677 332.387h231.226v-66.065h-231.226v66.065zM957.935-30.968h-297.29v264.258h297.29v-264.258z" />
<glyph unicode="&#xe91a;" glyph-name="internet" d="M642.648 793.266c-25.625 66.492-57.836 122.492-94.852 165.43-12.156 0.859-24.391 1.305-36.688 1.305-12.305 0-24.539-0.445-36.688-1.305-37.023-42.938-69.234-98.93-94.852-165.43-8.273-21.469-15.711-43.727-22.313-66.633h307.703c-6.609 22.906-14.047 45.164-22.313 66.633zM342.203 229.367h337.805c12.914 60.016 20.414 123.531 22.18 188.633h-382.164c1.766-65.109 9.266-128.617 22.18-188.633zM680.008 666.633h-337.805c-12.914-60.016-20.414-123.531-22.18-188.633h382.164c-1.766 65.109-9.266 128.617-22.18 188.633zM379.563 102.734c25.625-66.492 57.836-122.492 94.852-165.43 12.156-0.859 24.391-1.305 36.695-1.305 12.297 0 24.531 0.445 36.688 1.305 37.016 42.938 69.227 98.93 94.844 165.43 8.273 21.469 15.711 43.727 22.313 66.633h-307.695c6.602-22.906 14.039-45.164 22.305-66.633zM741.188 666.633c12.102-59.906 19.32-123.328 21.016-188.633h260.008c-3.797 66.18-20.109 130-47.859 188.68-0.289-0.008-0.57-0.047-0.859-0.047zM281.031 229.367c-12.109 59.906-19.328 123.328-21.023 188.633h-260.008c3.797-66.18 20.109-130 47.859-188.68 0.289 0.008 0.57 0.047 0.859 0.047zM727.109 169.367c-22.336-83.289-54.555-157.953-94.727-218.969 90.398 21.859 173.328 68.133 240.758 135.563 25.695 25.695 48.289 53.656 67.664 83.406zM295.102 726.633c22.344 83.289 54.555 157.953 94.727 218.969-90.391-21.859-173.328-68.133-240.766-135.563-25.688-25.695-48.281-53.656-67.656-83.406zM295.102 169.367h-213.695c19.375-29.75 41.969-57.711 67.656-83.406 67.438-67.43 150.367-113.703 240.758-135.563-40.164 61.016-72.375 135.68-94.719 218.969zM727.109 726.633h213.695c-19.375 29.75-41.961 57.711-67.656 83.406-67.438 67.43-150.367 113.703-240.766 135.563 40.172-61.016 72.391-135.68 94.727-218.969zM762.203 418c-1.695-65.305-8.906-128.727-21.016-188.633h232.305c0.289 0 0.57-0.039 0.859-0.047 27.75 58.68 44.063 122.5 47.859 188.68zM260.008 478c1.695 65.305 8.914 128.727 21.023 188.633h-232.313c-0.289 0-0.57 0.039-0.859 0.047-27.75-58.68-44.063-122.5-47.859-188.68z" />
<glyph unicode="&#xe91b;" glyph-name="link" d="M624.794 560.87c-12.13 12.202-25.579 23.018-40.099 32.25-38.457 24.626-83.165 37.711-128.831 37.711-63.383 0.118-124.19-25.065-168.93-69.961l-217.049-217.219c-44.664-44.75-69.767-105.381-69.807-168.606-0.084-131.936 106.801-238.959 238.737-239.043 63.285-0.22 124.036 24.844 168.76 69.619l179.168 179.168c3.255 3.227 5.073 7.631 5.047 12.214-0.054 9.424-7.739 17.019-17.163 16.965h-6.825c-37.433-0.132-74.533 7.057-109.206 21.158-6.389 2.63-13.732 1.146-18.599-3.753l-128.831-129.001c-40.005-40.005-104.865-40.005-144.87 0s-40.005 104.865 0 144.87l217.903 217.731c39.973 39.923 104.727 39.923 144.7 0 26.939-25.353 68.96-25.353 95.897 0 11.59 11.6 18.617 26.985 19.794 43.342 1.246 19.546-5.963 38.689-19.796 52.555zM953.951 890.027c-93.297 93.297-244.562 93.297-337.859 0l-178.998-178.826c-4.915-4.939-6.333-12.368-3.583-18.771 2.718-6.421 9.068-10.542 16.039-10.408h6.313c37.389 0.068 74.429-7.177 109.036-21.33 6.389-2.63 13.732-1.146 18.599 3.753l128.489 128.319c40.005 40.005 104.865 40.005 144.87 0s40.005-104.865 0-144.87l-160.057-159.885-1.366-1.536-55.968-55.628c-39.973-39.923-104.727-39.923-144.7 0-26.939 25.353-68.96 25.353-95.897 0-11.664-11.688-18.697-27.207-19.794-43.682-1.248-19.546 5.961-38.689 19.794-52.557 19.75-19.834 42.858-36.010 68.254-47.777 3.583-1.706 7.167-3.071 10.75-4.607s7.337-2.73 10.92-4.095c3.583-1.366 7.337-2.56 10.92-3.583l10.068-2.73c6.825-1.706 13.652-3.071 20.646-4.265 8.426-1.252 16.913-2.050 25.425-2.39h12.968l10.238 1.194c3.753 0.17 7.679 1.024 12.116 1.024h5.801l11.774 1.706 5.461 1.024 9.896 2.048h1.878c41.914 10.528 80.188 32.23 110.742 62.795l217.219 217.219c93.303 93.297 93.303 244.562 0.006 337.859z" />
<glyph unicode="&#xe91c;" glyph-name="manager" horiz-adv-x="1022" d="M612.103 601.999c11.039 0 20 8.961 20 20s-8.961 20-20 20c-11.063 0-20-8.961-20-20s8.938-20 20-20zM412.102 601.999c11.039 0 20 8.961 20 20s-8.961 20-20 20c-11.063 0-20-8.961-20-20s8.938-20 20-20zM458.634 464.53c16.789-7.914 34.781-11.93 53.461-11.93 18.273 0 35.914 3.852 52.438 11.445 10.039 4.617 14.43 16.492 9.82 26.531-4.617 10.031-16.492 14.43-26.531 9.813-11.242-5.164-23.266-7.789-35.727-7.789-12.742 0-24.992 2.727-36.406 8.109-9.992 4.711-21.914 0.43-26.617-9.563-4.711-9.992-0.43-21.906 9.563-26.617zM953.182 150.459c0 109.977-125.25 196.227-232.61 200.313l-54.774 49.211c66.711 48.672 107.203 126.891 107.203 210.016v132c0 121.305-99.008 220-220.704 220h-80c-121.531 0-219.297-98.344-219.297-220v-132c0-82.985 39.953-161.055 105.797-209.641l-55.188-49.586c-107.125-4.078-232.61-90.11-232.61-200.313v-192.461c0-11.047 8.953-20 20-20h842.181c11.047 0 20 8.953 20 20zM467.79 69.998h88.492l20.969-92h-131.039zM558.001 109.998h-91.477l-15.344 47.805 60.922 30.461 62.227-31.125zM512.095 248.358l-69.5 111.18c22.57-6.273 46.024-9.531 69.703-9.531 23.453 0 46.734 3.195 69.188 9.367zM540.72 218.67l96.024 153.649 51.789-46.531-65.899-148.086zM472.298 922h80c99.641 0 180.703-80.742 180.703-180v-16.531l-37.555 54.078c-3.398 4.898-8.813 8.023-14.758 8.523-5.953 0.5-11.797-1.68-15.969-5.945-40.656-41.578-87.727-60.125-152.617-60.125-64.883 0-111.961 18.547-152.649 60.125-4.188 4.289-10.086 6.461-16.047 5.938-5.969-0.523-11.391-3.695-14.766-8.648l-35.641-52.227v14.813c0 99.258 80.43 180 179.297 180zM293.001 609.999v46.227l55.547 81.399c44.5-37.852 97.086-55.625 163.555-55.625 66.539 0 119.164 17.813 163.672 55.742l57.227-82.406v-45.336c0-119.774-97.899-220-220.704-220-122.406 0-219.297 99.914-219.297 220zM387.438 372.311l96.039-153.641-81.93-40.969-65.899 148.086zM111 150.459c0 82.391 100.156 153.532 187.68 160l74.828-168.133c2.219-4.984 6.383-8.852 11.523-10.695s10.805-1.5 15.695 0.938l14.25 7.133 16.227-50.531-26.078-111.172h-294.126zM913.181-22.002h-294.907l-25.266 110.867 17.398 50.234 13.047-6.531c4.922-2.461 10.602-2.766 15.695-0.938 5.141 1.844 9.305 5.711 11.523 10.695l74.828 168.133c87.524-6.477 187.68-77.61 187.68-160zM772.103 69.998h-80c-11.047 0-20-8.953-20-20s8.953-20 20-20h80c11.047 0 20 8.953 20 20s-8.953 20-20 20zM851.002 69.998c11.039 0 20-8.961 20-20s-8.961-20-20-20-20 8.961-20 20 8.961 20 20 20z" />
<glyph unicode="&#xe91d;" glyph-name="menu" d="M38.642 699.17h946.717c21.33 0 38.642 17.311 38.642 38.642s-17.311 38.642-38.642 38.642h-946.717c-21.33 0-38.642-17.311-38.642-38.642s17.311-38.642 38.642-38.642zM38.642 409.358h946.717c21.33 0 38.642 17.311 38.642 38.642s-17.311 38.642-38.642 38.642h-946.717c-21.33 0-38.642-17.311-38.642-38.642s17.311-38.642 38.642-38.642zM38.642 119.547h946.717c21.33 0 38.642 17.311 38.642 38.642s-17.311 38.642-38.642 38.642h-946.717c-21.33 0-38.642-17.311-38.642-38.642s17.311-38.642 38.642-38.642z" />
<glyph unicode="&#xe91e;" glyph-name="message" d="M658.001 666c22.094 0 40-17.906 40-40s-17.906-40-40-40-40 17.906-40 40 17.906 40 40 40zM458 626c0-22.094 17.906-40 40-40s40 17.906 40 40-17.906 40-40 40-40-17.906-40-40zM818.001 586c22.094 0 40 17.906 40 40s-17.906 40-40 40-40-17.906-40-40 17.906-40 40-40zM1019.079 290.992c6.094-15.063 2.469-32.313-9.172-43.641-7.625-7.43-17.695-11.352-27.922-11.352-5.383 0-10.813 1.086-15.953 3.328l-170 74c-20.258 8.813-29.523 32.383-20.711 52.641 8.82 20.25 32.383 29.531 52.641 20.703l80.274-34.938-31.305 77.438c-5.586 13.82-3.023 29.602 6.648 40.945 38.219 44.836 58.422 98.492 58.422 155.172 0 140.445-126.508 254.711-282 254.711-155.5 0-282-114.266-282-254.711v-1.289c0-82.25 42.367-158.414 113.844-205.75 44.875 15.094 86.875 32.867 126.156 53.383v20.367c0 22.094 17.906 40 40 40s40-17.906 40-40v-516c0-22.086-17.906-40-40-40s-40 17.914-40 40v20.938c-32.938 16.578-72.031 31.789-107.039 45.406-7.391 2.875-14.625 5.688-21.617 8.438-20.555 8.094-30.656 31.32-22.563 51.875 8.086 20.555 31.305 30.664 51.875 22.563 6.891-2.711 14.016-5.484 21.305-8.32 24.977-9.711 51.922-20.203 78.039-31.672v297.258c-146.508-68.141-324.094-103.625-540-108.024v-78.75c96.149-1.219 191.602-6.383 292.242-33.039 19.93-5.281 32.586-24.852 29.219-45.195l-2.719-16.477c-0.133-0.781-0.281-1.555-0.461-2.32l-12.719-56.109c-9.727-46.961-51.328-79.477-97.633-79.484-6.375 0-12.836 0.617-19.328 1.898l-74.008 14c-0.133 0.031-0.273 0.055-0.398 0.078-26.68 5.328-49.5 20.859-64.25 43.711-14.75 22.859-19.492 50.047-13.367 76.555 0.047 0.172 0.086 0.352 0.133 0.523l3.688 15.023c-13.445 0.391-26.914 0.648-40.398 0.82v-0.25c0-22.094-17.906-40-40-40s-40 17.906-40 40v237.891c0 22.094 17.906 40 40 40 21.703 0 39.328-17.297 39.945-38.859 118.852 2.508 225.016 14.773 319.813 37.102-63.438 61.344-99.758 144.109-99.758 232.422v1.289c0 184.563 162.391 334.711 362 334.711s362-150.149 362-334.711c0-67.883-21.414-132.289-62.18-187.695zM195.164 66.156c1.68-2.602 5.531-7.156 12.555-8.617l73.945-13.984c0.133-0.023 0.266-0.047 0.398-0.078 10.664-2.125 21.039 4.797 23.188 15.438 0.063 0.305 0.133 0.625 0.203 0.93l7.75 34.211c-38.078 8.102-75.828 13.188-113.516 16.391l-7.211-29.352c-1.539-6.977 1.016-12.344 2.688-14.938z" />
<glyph unicode="&#xe91f;" glyph-name="mill" d="M380.467 589.534c3.758-3.7 7.917-6.975 12.408-9.75-0.125-2.092-0.342-4.158-0.342-6.275v-1.45c-4.525-2.858-8.725-6.192-12.533-9.95l-273.066-290.133c-6.317-6.725-6.15-17.258 0.375-23.775l51.2-51.2c6.525-6.533 17.058-6.692 23.775-0.358l258.733 243.525-13.775-401.766h-120.041v-102.4h409.599v102.4h-120.050l-13.858 401.749 258.733-243.508c6.717-6.333 17.25-6.175 23.775 0.358l51.2 51.2c6.533 6.517 6.7 17.050 0.375 23.775l-273.441 290.491c-3.675 3.625-7.717 6.842-12.067 9.608 0 0.475 0 0.933 0 1.433 0 2.117-0.225 4.2-0.342 6.275 4.608 2.9 8.892 6.292 12.783 10.108l273.066 290.133c6.325 6.725 6.158 17.25-0.375 23.775l-51.2 51.2c-6.525 6.525-17.058 6.683-23.775 0.358l-290.508-273.441c-0.342-0.342-0.55-0.717-0.892-1.042-24.833 8.075-51.592 8.075-76.425 0-0.458 0.475-0.817 0.933-1.292 1.417l-290.133 273.066c-6.725 6.325-17.25 6.167-23.775-0.358l-51.2-51.2c-6.533-6.525-6.7-17.050-0.375-23.775zM171.026 232.843l-27.767 27.783 257 273.066c7.875-19.65 21.042-36.717 38.042-49.325zM682.666 4.268v-34.133h-341.333v34.133zM461.392 38.402l14.767 426.924c23.408-6.992 48.35-6.992 71.767 0l14.675-426.924zM880.741 260.626l-27.767-27.783-267.283 251.558c16.992 12.608 30.158 29.675 38.042 49.308zM852.974 919.158l27.767-27.783-258.375-274.55c-8.583 19.317-22.317 35.892-39.7 47.917zM597.333 573.509c-1.783-45.408-39.917-80.85-85.333-79.292-45.425-1.558-83.558 33.883-85.333 79.292 1.775 45.408 39.908 80.85 85.333 79.292 45.417 1.558 83.55-33.883 85.333-79.292zM171.026 919.158l270.316-254.416c-17.383-12.025-31.125-28.6-39.717-47.917l-258.366 274.55zM85.334 738.134c4.525 0 8.867 1.8 12.067 5l34.133 34.133c6.467 6.692 6.375 17.342-0.208 23.925s-17.233 6.675-23.925 0.208l-34.133-34.133c-4.883-4.883-6.342-12.225-3.7-18.6s8.858-10.533 15.767-10.533zM68.267 618.667c4.525 0 8.867 1.8 12.067 5l102.4 102.4c6.467 6.692 6.375 17.342-0.208 23.925s-17.233 6.675-23.925 0.208l-102.4-102.4c-4.883-4.883-6.342-12.225-3.7-18.6s8.858-10.533 15.767-10.533zM926.599 425.934l-34.133-34.133c-4.442-4.283-6.217-10.633-4.658-16.6 1.567-5.967 6.225-10.625 12.192-12.192 5.967-1.558 12.308 0.217 16.6 4.658l34.133 34.133c6.467 6.692 6.375 17.342-0.208 23.925s-17.233 6.675-23.925 0.208zM841.266 418.868c6.658-6.667 17.467-6.667 24.133 0l102.4 102.4c6.467 6.692 6.375 17.342-0.208 23.925s-17.233 6.675-23.925 0.208l-102.4-102.4c-6.667-6.667-6.667-17.467 0-24.133z" />
<glyph unicode="&#xe920;" glyph-name="money-bag" d="M546.488 317.286h-58.545c-21.289 0-38.533 17.244-38.533 38.533s17.244 38.533 38.533 38.533h103.039c14.051 0 25.547 11.496 25.547 25.547s-11.496 25.547-25.547 25.547h-48.326v35.553c0 14.051-11.496 25.547-25.547 25.547s-25.547-11.496-25.547-25.547v-35.553h-3.619c-49.39 0-89.627-40.236-89.627-89.627s40.236-89.627 89.627-89.627h58.545c21.289 0 38.533-17.244 38.533-38.533s-17.244-38.533-38.533-38.533h-104.955c-14.051 0-25.547-11.496-25.547-25.547s11.496-25.547 25.547-25.547h50.242v-36.404c0-14.051 11.496-25.547 25.547-25.547s25.547 11.496 25.547 25.547v36.404h4.258c0.213 0 0.426 0 0.639 0 48.965 0.639 88.349 40.662 88.349 89.627 0 49.39-40.236 89.627-89.627 89.627zM901.163 375.192c-26.824 61.738-63.867 121.56-110.703 177.55-56.629 68.125-113.044 113.683-141.785 134.759l108.574 201.394c5.322 10.006 3.619 22.353-4.684 30.23-28.101 27.463-57.906 40.875-91.117 40.875-30.443 0-58.332-11.496-82.601-21.715-19.16-7.877-37.256-15.541-51.945-15.541-4.471 0-8.303 0.639-12.135 2.129-50.668 18.521-89.627 30.017-127.308 30.017-47.687 0-88.349-19.16-128.16-60.035-8.303-8.516-9.58-21.928-2.98-31.933l117.089-176.911c-28.953-21.502-84.304-66.635-139.869-133.269-46.623-55.99-83.879-115.812-110.703-177.55-33.637-77.705-50.668-158.816-50.668-240.991 0-109.212 88.988-198.2 198.2-198.2h483.26c109.212 0 198.2 88.988 198.2 198.2 0 82.175-17.031 163.286-50.668 240.991zM310.819 873.567c24.695 21.289 48.326 30.656 76.64 30.656 30.23 0 64.293-10.219 109.638-27.037 9.367-3.406 19.373-5.109 29.592-5.109 24.908 0 48.752 9.793 71.531 19.373 21.928 9.154 42.791 17.883 63.015 17.883 9.793 0 23.631-1.703 41.088-14.051l-102.187-189.898h-177.976l-111.341 168.183zM753.63-12.906h-483.26c-81.111 0-147.107 65.996-147.107 147.107 0 136.462 50.029 265.899 148.384 384.692 62.164 75.15 125.392 121.773 144.552 135.398h191.175c19.373-13.412 82.388-60.248 144.552-135.398 98.568-118.793 148.384-248.017 148.384-384.692 0.426-81.111-65.57-147.107-146.681-147.107z" />
<glyph unicode="&#xe921;" glyph-name="musica-searcher" d="M998.935 82.081l-222.458 222.454c-1.182 1.182-2.569 2.009-3.805 3.109 43.772 66.399 69.32 145.881 69.32 231.356 0 232.513-188.487 421-420.996 421s-420.996-188.487-420.996-420.996c0-232.505 188.483-420.996 420.992-420.996 85.479 0 164.956 25.548 231.356 69.32 1.1-1.231 1.923-2.618 3.105-3.8l222.462-222.462c33.418-33.414 87.598-33.414 121.020 0 33.414 33.418 33.414 87.598 0 121.016zM420.996 263.953c-151.911 0-275.054 123.144-275.054 275.050 0 151.911 123.148 275.054 275.054 275.054 151.902 0 275.050-123.148 275.050-275.054s-123.148-275.050-275.050-275.050z" />
<glyph unicode="&#xe922;" glyph-name="natural-rocks-collapse" d="M471.606 581.592c6.077-17.535 20.071-19.93 0-26.637l-53.197-26.624-53.172 53.262c-7.094 20.831 1.635 34.208 26.637 53.236l53.236-26.534c6.424-8.201 24.436-20.561 26.496-26.702zM418.409 794.666c-16.029 7.828-35.302 5.935-53.172 0-9.424-3.064-15.694-17.136-26.689-26.624v-79.873l79.861 26.637c22.003 24.964 31.903 37.671 26.702 53.236-4.236 12.347-10.506 18.488-26.702 26.624zM637.404 687.331l-6 0.772c-3.064-1.030-25.865 18.102-53.133 26.637-13.222 4.506-13.364-5.201-26.727 0-18.835-6.437-22.003-22.196-26.702-53.262-4.506-31.208-10.364-75.239 0-106.498 2.871-8.459 16.17-16.029 26.702-26.624l26.727-26.599h26.534c34.671 15.14 47.88 51.408 53.21 53.236 12.54 7.506 22.26 29.766 26.663 53.275 4.261 23.599 7.326 31.272 0 53.236-8.407 24.951-30.538 31.349-47.275 25.826zM631.405 448.47v-53.275c13.261-11.806 27.268-22.736 53.275-26.663l53.197 26.663-26.663 79.899-79.809-26.624zM950.924 448.47c-35.598 39.396-54.524 44.095-106.588 26.689h-26.599c-24.668-21.822-36.062-38.701-53.197-79.899-16.737-39.332-34.13-83.865-26.663-106.472 0.669-1.802 21.732-24.989 53.197-53.262 33.268-27.41 49.194-44.069 53.21-53.275l106.524 26.74c11.471 3.721 55.94 98.451 53.197 106.395-21.346 64.205-31.401 108.584-53.082 133.084zM871.875-62.584c-0.27 1.802-1.802 5.253-0.927 5.253-19.943 28.401-105.339 95.67-106.472 106.537-1.275 11.471-25.067 52.85-53.275 79.783-12.076 19.067-13.196 33.667-26.663 53.21-13.325 19.402-38.34 59.197-53.197 79.861l-100.37 63.201c-14.6 7.738-98.439 4.931-215.236 128.462l-3.901 74.659c-15.63 19.132-48.267 65.003-53.094 79.899-30.809 91.667-10.377 166.635-26.702 292.792l-59.171 39.641-70.848 13.608c-23.908 10.029-78.741 3.708-78.741 3.708l-3.399-1022.030h854.404l-2.408 1.416z" />
<glyph unicode="&#xe923;" glyph-name="online-shopping-cart" d="M37.882 836.925h108.595l154.687-559.394c4.419-16.416 19.572-27.781 36.619-27.781h475.422c15.153 0 28.412 8.84 34.725 22.729l172.995 397.764c5.052 11.995 3.788 25.254-3.158 35.988s-18.941 17.047-31.569 17.047h-525.298c-20.835 0-37.882-17.047-37.882-37.882s17.047-37.882 37.882-37.882h467.215l-140.164-321.999h-421.757l-154.684 559.394c-4.419 16.416-19.572 27.781-36.619 27.781h-137.009c-20.835 0-37.882-17.047-37.882-37.882s17.047-37.882 37.882-37.882zM301.795-16.69c47.353 0 85.866 38.513 85.866 85.866s-38.513 85.866-85.866 85.866-85.866-38.511-85.866-85.863 38.513-85.868 85.866-85.868zM838.462-16.69c1.894 0 4.419 0 6.313 0 22.729 1.894 43.565 11.995 58.718 29.675 15.153 17.047 22.099 39.146 20.835 62.506-3.158 46.722-44.195 82.71-91.548 79.553s-82.71-44.828-79.553-91.548c3.155-44.828 40.407-80.186 85.235-80.186z" />
<glyph unicode="&#xe924;" glyph-name="order" d="M785.067 430.933h-204.8v170.667c0 29.017-22.183 51.2-51.2 51.2h-17.067c-29.017 0-51.2-22.183-51.2-51.2v-221.867h-34.133c-29.017 0-51.2-22.183-51.2-51.2v-124.583l102.4-187.733v-80.217h307.2v81.917l51.2 119.467v242.35c0 29.017-22.183 51.2-51.2 51.2zM512-29.867v34.133h238.933v-34.133zM802.133 144.217l-46.083-105.817h-250.875l-95.575 175.783v114.35c0 10.242 6.825 17.067 17.067 17.067h34.133v-68.267h34.133v324.267c0 10.242 6.825 17.067 17.067 17.067h17.067c10.242 0 17.067-6.825 17.067-17.067v-290.133h34.133v85.333h51.2v-85.333h34.133v85.333h51.2v-85.333h34.133v85.333h34.133c10.242 0 17.067-6.825 17.067-17.067zM716.8 128.85l-30.717-46.075 27.3-20.483 37.55 56.325v73.383h-34.133zM848.217 960h-672.433l-90.45-235.517v-634.883h307.2v34.133h-273.067v580.267h204.8v34.133h-196.267l44.375 119.467h203.092v34.133h-189.442l13.658 34.133h624.633l13.658-34.133h-189.442v-34.133h203.092l44.375-119.467h-196.267v-34.133h204.8v-580.267h-34.133v-34.133h68.267v634.883zM455.683 750.083l-23.9-23.9 46.083-46.075 97.283 97.275-23.9 23.9-73.383-73.392zM628.050 635.733c56.325 63.15 49.5 160.425-13.65 216.75-64.85 56.317-162.133 51.2-218.45-11.95-56.325-63.15-49.5-160.425 13.65-216.75l22.183 25.6c-49.492 44.375-54.608 119.467-10.233 168.967 44.367 49.492 119.467 54.608 168.958 10.233 49.492-44.367 54.608-119.467 10.242-168.958z" />
<glyph unicode="&#xe925;" glyph-name="placeholder-filled-tool-shape-for-maps" d="M511.566 960c-213.297 0-385.843-172.545-385.843-385.843 0-110.984 55.492-211.563 110.117-304.339 66.764-115.328 146.533-222.835 239.309-318.212 19.942-20.801 52.899-20.801 73.7 0 81.504 80.637 153.47 171.678 214.164 268.789 65.030 104.923 135.262 226.312 135.262 353.761-0.867 212.43-173.412 385.843-386.71 385.843zM511.566 350.456c-129.192 0-234.107 104.914-234.107 234.107s104.914 234.107 234.107 234.107c129.192 0 234.107-104.047 234.107-234.107s-104.914-234.107-234.107-234.107z" />
<glyph unicode="&#xe926;" glyph-name="pump" d="M804 786c0-50.254 33.886-92.712 80-105.808v-654.192c0-16.542-13.458-30-30-30s-30 13.458-30 30v542c0 49.626-40.374 90-90 90h-11.138c0.752-9.904 1.138-19.908 1.138-30 0-10.064-0.42-20.066-1.176-30h11.176c16.542 0 30-13.458 30-30v-542c0-49.626 40.374-90 90-90s90 40.374 90 90v654.192c46.114 13.094 80 55.554 80 105.808v30h-220v-30zM804 960h60v-84h-60v84zM964 960h60v-84h-60v84zM0 419.626v-483.626h90v383.792c-35.954 28.226-66.244 62.072-90 99.834zM574 319.792v-383.792h90v483.626c-23.756-37.762-54.046-71.608-90-99.834zM332 780c-83.814 0-152-68.186-152-152s68.186-152 152-152 152 68.186 152 152-68.186 152-152 152zM332 960c-183.066 0-332-148.934-332-332 0-115.914 59.724-218.122 150-277.526v-414.474h364v414.474c90.276 59.402 150 161.612 150 277.526 0 183.066-148.934 332-332 332zM444 117h-184v180h184v-180zM332 416c-116.898 0-212 95.102-212 212s95.102 212 212 212 212-95.102 212-212-95.102-212-212-212zM320 237h64v-60h-64v60z" />
<glyph unicode="&#xe927;" glyph-name="pumpjack" d="M722.616 9.143l-210.616 202.518-210.616-202.518zM654.464 429.714h-284.857l-5.429-25.161 147.821-142.152 147.893 142.205zM668.964 362.607l-130.58-125.589 199.080-191.429zM0-27.429h1024v-36.571h-1024zM950.857 64h73.143v-54.857h-73.143zM0 704v-247.973l65.589-117.741h117.268v365.714zM1024 656.714v303.286h-73.143v-303.286l36.571-36.571zM969.143 594.286h36.571v-493.714h-36.571zM398.045 561.187l-20.518-94.902h269.036l-32.982 152.67zM219.429 551.205l694.857 186.205v75.518l-694.857-186.054zM355.089 362.554l-68.554-316.964 199.080 191.429z" />
<glyph unicode="&#xe928;" glyph-name="quality" d="M680.712 358.5c0-93.176-75.815-169.001-169.001-169.001-93.176 0-169.001 75.826-169.001 169.001 0 93.186 75.826 169.001 169.001 169.001h42.25v84.501h-42.25c-139.779 0-253.502-113.713-253.502-253.502 0-139.779 113.723-253.502 253.502-253.502 139.789 0 253.502 113.723 253.502 253.502v42.25h-84.501zM469.461 439.37l-59.755-59.745 102.005-101.985 228.767 228.736-59.765 59.745-169.001-169.001zM934.214 548.224v401.78h-253.502v-112.908l-169.001 122.903-422.503-307.243v-632.259h-84.501v-84.501h1014.008v84.501h-84.501zM765.213 865.504h84.501v-151.27l-84.501 61.467zM173.709 20.498v589.225l338.003 245.817 338.003-245.817v-589.225z" />
<glyph unicode="&#xe929;" glyph-name="quote" d="M0 374.857h219.428l-146.287-292.57h219.428l146.287 292.57v438.857h-438.857zM585.143 813.713v-438.857h219.428l-146.287-292.57h219.428l146.287 292.57v438.857z" />
<glyph unicode="&#xe92a;" glyph-name="recycled" d="M233.023 474.156l117.562 243.852c-221.187-131.922-199.883-457.867 35.555-560.43v109.195c0 17.031-13.812 30.844-30.844 30.844h-11.414c-90.781 0-150.227 94.883-110.859 176.539zM733.195 454.398c18.461 40.789-11.586 86.719-55.93 86.719h-61.68c-16.359 0-29.617 13.258-29.617 29.609v358.469c0 32.648-44.437 42.828-58.633 13.391l-238.75-495.219c-19.742-40.937 10.297-88.062 55.305-88.062h74.32c16.359 0 29.609-13.258 29.609-29.609v-362.898c0-33.062 45.312-42.852 58.953-12.719l131.531 290.648zM789.398 428.961l-113.781-251.437c213.75 130.523 198.109 445.578-27.969 554.016v-99.117c0-16.359 13.258-29.617 29.617-29.617 89.492 0.008 148.961-92.445 112.133-173.844zM895.078 751.484h44.109c17.023 0 30.844 13.805 30.844 30.852 0 17.023-13.82 30.844-30.844 30.844-123.961-0.023-117.5 0.609-124.164-1.523-12.859-4.086-21.328-16.305-21.328-29.32v-114.648c0-17.023 13.797-30.844 30.852-30.844 17.023 0 30.844 13.82 30.844 30.844v34.32c185.398-247.703 49.453-603.93-246.422-671.617l-30.82-68.125c377.602 50.422 551.211 496.57 316.93 789.219zM233.266 223.774c0 17.047-13.812 30.844-30.844 30.844-17.047 0-30.844-13.797-30.844-30.844v-35.578c-193.953 246.766-46.898 616.211 251.492 677.711l32.617 67.672c-370.117-39.297-572.516-491.992-324.297-793.601h-43.609c-17.031 0-30.852-13.797-30.852-30.844 0-17.031 13.82-30.852 30.852-30.852h115.258c19.297 0 34.055 17.609 30.227 36.914z" />
<glyph unicode="&#xe92b;" glyph-name="renewable-energy" d="M1005.146 510.404c-13.036 13.038-34.18 13.040-47.222 0l-70.834-70.834-62.962 62.964 70.834 70.834c13.040 13.038 13.040 34.182 0 47.222-13.038 13.040-34.182 13.040-47.222 0l-70.834-70.834-23.612 23.612c-6.262 6.262-14.754 9.782-23.61 9.782s-17.35-3.518-23.61-9.782l-55.094-55.094c-61.502-61.502-68.484-157.146-21.034-226.456l-84.554-84.556v332.968c82.286 15.678 144.696 88.12 144.696 174.902v77.912c0 18.44-14.95 33.392-33.392 33.392h-33.392v100.172c0 18.44-14.95 33.392-33.392 33.392s-33.392-14.95-33.392-33.392v-100.174h-89.044v100.174c0 18.44-14.95 33.392-33.392 33.392-18.44 0-33.392-14.95-33.392-33.392v-100.174h-33.392c-18.44 0-33.392-14.95-33.392-33.392v-77.914c0-86.782 62.41-159.224 144.696-174.902v-332.962l-84.554 84.554c47.448 69.31 40.468 164.954-21.034 226.458l-55.094 55.094c-6.262 6.262-14.754 9.782-23.61 9.782-8.858 0-17.348-3.52-23.61-9.782l-23.612-23.614-70.834 70.834c-13.038 13.040-34.182 13.040-47.222 0s-13.040-34.182 0-47.222l70.834-70.834-62.962-62.964-70.834 70.834c-13.038 13.040-34.182 13.040-47.222 0s-13.040-34.182 0-47.222l70.832-70.834-23.612-23.612c-6.262-6.262-9.782-14.754-9.782-23.61 0-8.858 3.52-17.348 9.782-23.612l55.094-55.092c33.636-33.638 78.358-52.162 125.928-52.162 36.042 0 70.44 10.656 99.63 30.442l131.882-131.882v-110.038h-100.174c-18.44 0-33.392-14.95-33.392-33.392s14.956-33.39 33.396-33.39h267.13c18.44 0 33.392 14.95 33.392 33.392s-14.95 33.392-33.392 33.392h-100.174v110.036l131.882 131.882c29.188-19.786 63.586-30.442 99.63-30.442 47.57 0 92.292 18.524 125.926 52.16l55.094 55.094c6.262 6.262 9.782 14.754 9.782 23.612 0 8.856-3.518 17.348-9.782 23.61l-23.612 23.612 70.834 70.834c13.042 13.038 13.042 34.182 0.002 47.222z" />
<glyph unicode="&#xe92c;" glyph-name="right-arrow" d="M1012.268 476.314c-0.012 0.012-0.022 0.026-0.036 0.038l-209.008 208c-15.658 15.582-40.984 15.524-56.57-0.136-15.584-15.658-15.524-40.984 0.134-56.568l140.328-139.648h-847.116c-22.092 0-40-17.908-40-40s17.908-40 40-40h847.114l-140.324-139.648c-15.658-15.584-15.718-40.91-0.134-56.568 15.586-15.662 40.914-15.716 56.57-0.136l209.008 208c0.012 0.012 0.022 0.026 0.036 0.038 15.666 15.636 15.616 41.044-0.002 56.628z" />
<glyph unicode="&#xe92d;" glyph-name="road-split" d="M896 128v64c0 12.8 0 262.4-179.2 345.6-140.8 64-140.8 224-140.8 230.4v192h-128v-192c0-6.4 0-166.4-140.8-230.4-179.2-83.2-179.2-332.8-179.2-345.6v-64h-128l192-192 192 192h-128v64c0 0 0 179.2 108.8 230.4 70.4 32 115.2 83.2 147.2 128 32-51.2 76.8-96 147.2-128 108.8-51.2 108.8-230.4 108.8-230.4v-64h-128l192-192 192 192h-128z" />
<glyph unicode="&#xe92e;" glyph-name="sea-dyke" d="M1.564 960v-1024h319.646l-177.388 1024zM975.656 631.442c-24.361 17.943-57.72 42.518-119.355 42.518-61.64 0-95.001-24.573-119.357-42.518-17.929-13.206-25.346-18.672-46.775-18.672-21.419 0-28.839 5.466-46.763 18.669-24.361 17.943-57.715 42.52-119.348 42.52s-94.994-24.573-119.348-42.518c-17.924-13.206-25.341-18.672-46.765-18.672-21.419 0-28.839 5.466-46.761 18.669-14.486 10.67-32.159 23.69-57.069 32.487l27.319-157.706c19.564-9.042 44.133-15.825 76.511-15.825 61.635 0 94.994 24.571 119.352 42.52 17.922 13.206 25.341 18.669 46.763 18.669 21.426 0 28.844-5.463 46.765-18.669 24.361-17.947 57.72-42.52 119.348-42.52 61.64 0 95.001 24.571 119.357 42.52 17.929 13.206 25.346 18.669 46.775 18.669 21.431 0 28.848-5.463 46.772-18.669 24.363-17.947 57.722-42.52 119.357-42.52v122.377c-21.431-0.002-28.853 5.463-46.779 18.669zM856.3 407.794c-61.64 0-95.001-24.573-119.357-42.52-17.929-13.208-25.346-18.674-46.775-18.674-21.419 0-28.839 5.466-46.763 18.669-24.359 17.945-57.717 42.525-119.35 42.525-61.63 0-94.991-24.573-119.345-42.52-17.924-13.208-25.341-18.674-46.765-18.674-21.419 0-28.839 5.466-46.761 18.669-1.97 1.451-4.007 2.951-6.109 4.474l24.892-143.681c8.633-1.177 17.926-1.839 27.979-1.839 61.635 0 94.994 24.571 119.352 42.52 17.922 13.208 25.341 18.674 46.765 18.674 21.422 0 28.839-5.466 46.763-18.674 24.359-17.945 57.717-42.52 119.348-42.52 61.64 0 95.001 24.571 119.357 42.52 17.929 13.208 25.346 18.674 46.775 18.674 21.431 0 28.848-5.466 46.772-18.674 24.363-17.945 57.722-42.52 119.357-42.52v122.377c-21.431 0-28.851 5.466-46.775 18.674-24.361 17.947-57.72 42.52-119.359 42.52zM856.3 135.504c-61.64 0-95.001-24.571-119.357-42.523-17.929-13.206-25.346-18.669-46.775-18.669-21.419 0-28.839 5.463-46.763 18.669-24.359 17.943-57.717 42.523-119.35 42.523-61.63 0-94.991-24.571-119.345-42.523-17.924-13.206-25.341-18.669-46.765-18.669-0.588 0-1.13 0.021-1.698 0.028l21.055-121.537c49.504 4.48 78.322 25.683 99.996 41.648 17.922 13.208 25.341 18.674 46.765 18.674 21.422 0 28.839-5.466 46.763-18.674 24.359-17.943 57.717-42.518 119.348-42.518 61.64 0 95.001 24.571 119.357 42.518 17.929 13.208 25.346 18.674 46.775 18.674 21.431 0 28.848-5.466 46.772-18.674 24.363-17.943 57.722-42.518 119.357-42.518v122.379c-21.431 0-28.851 5.463-46.775 18.669-24.361 17.947-57.72 42.523-119.359 42.523z" />
<glyph unicode="&#xe92f;" glyph-name="shop-bag-1" d="M997.867 482.133h-273.070v460.797c0 9.43-7.641 17.070-17.062 17.070h-136.539c-9.422 0-17.062-7.641-17.062-17.070v-358.398h-375.469v358.398c0 9.43-7.641 17.070-17.062 17.070h-136.531c-9.43 0-17.070-7.641-17.070-17.070v-989.859c0-9.43 7.641-17.070 17.070-17.070h921.594c8.937-0.023 16.383 6.844 17.070 15.75l32.867 427.984h1.266c9.422 0 17.062 7.641 17.062 17.062v68.273c0 9.422-7.641 17.062-17.062 17.062zM42.133-29.867v955.734h102.398v-358.398c0-9.43 7.641-17.070 17.070-17.070h409.602c9.422 0 17.062 7.641 17.062 17.070v358.398h102.398v-443.734h-136.531c-9.43 0-17.070-7.641-17.070-17.062v-68.266c0-9.43 7.641-17.070 17.070-17.070h1.266l31.5-409.602zM936.102 38.399h-279.57v-34.133h276.961l-2.633-34.133h-309.727l-31.5 409.602h372.734zM980.797 413.867h-409.602v34.133h409.602zM809.125 72.531h52.211c9.422 0 17.062 7.641 17.062 17.070v24.508c48.789 58.078 44.969 143.844-8.789 197.359l-29.133 29.133c-6.664 6.664-17.469 6.664-24.133 0l-29.148-29.133c-4.25-4.312-8.242-8.867-11.945-13.656-21.031 9.023-43.68 13.672-66.562 13.656h-52.156c-9.422 0-17.062-7.641-17.062-17.070v-52.203c0.102-93.656 76-169.562 169.656-169.664zM811.328 287.32l17.062 17.062 17.070-17.062c28.719-28.539 39.812-70.344 29.016-109.367-9.172 41.75-33.742 78.508-68.812 102.945 1.805 2.172 3.633 4.391 5.664 6.422zM673.602 277.336h35.141c74.812-0.086 135.437-60.719 135.523-135.531v-35.141h-35.141c-74.812 0.086-135.445 60.711-135.523 135.531zM464.945 243.203h37.984v34.133h-57.703l-64.047 110.93c-5.43 8.164-16.445 10.383-24.609 4.953-1.961-1.305-3.648-2.992-4.953-4.953l-73.383-127.109-17.070 25.602-28.398-18.945 26.453-39.68-55.398-95.867c-4.711-8.164-1.914-18.602 6.25-23.312 2.594-1.5 5.531-2.289 8.531-2.289h115.914l-16.453-24.656 28.398-18.945 29.070 43.602h138.664c9.43 0 17.070 7.648 17.070 17.070 0 2.992-0.789 5.937-2.289 8.531zM383.469 140.797v34.141h-34.133v-34.141h-101.172l39.406 68.273h61.766v34.133h-42.055l59.117 102.398 48.57-84.125-28.633-42.937 28.398-18.945 19.266 28.914 50.641-87.711z" />
<glyph unicode="&#xe930;" glyph-name="shop-bag-2" d="M997.867 482.133h-273.070v460.797c0 9.43-7.641 17.070-17.062 17.070h-136.539c-9.422 0-17.062-7.641-17.062-17.070v-358.398h-375.469v358.398c0 9.43-7.641 17.070-17.062 17.070h-136.531c-9.43 0-17.070-7.641-17.070-17.070v-989.859c0-9.43 7.641-17.070 17.070-17.070h921.594c8.937-0.023 16.383 6.844 17.070 15.75l32.867 427.984h1.266c9.422 0 17.062 7.641 17.062 17.062v68.273c0 9.422-7.641 17.062-17.062 17.062zM42.133-29.867v955.734h102.398v-358.398c0-9.43 7.641-17.070 17.070-17.070h409.602c9.422 0 17.062 7.641 17.062 17.070v358.398h102.398v-443.734h-136.531c-9.43 0-17.070-7.641-17.070-17.062v-68.266c0-9.43 7.641-17.070 17.070-17.070h1.266l31.5-409.602zM936.102 38.399h-279.57v-34.133h276.961l-2.633-34.133h-309.727l-31.5 409.602h372.734zM980.797 413.867h-409.602v34.133h409.602zM809.125 72.531h52.211c9.422 0 17.062 7.641 17.062 17.070v24.508c48.789 58.078 44.969 143.844-8.789 197.359l-29.133 29.133c-6.664 6.664-17.469 6.664-24.133 0l-29.148-29.133c-4.25-4.312-8.242-8.867-11.945-13.656-21.031 9.023-43.68 13.672-66.562 13.656h-52.156c-9.422 0-17.062-7.641-17.062-17.070v-52.203c0.102-93.656 76-169.562 169.656-169.664zM811.328 287.32l17.062 17.062 17.070-17.062c28.719-28.539 39.812-70.344 29.016-109.367-9.172 41.75-33.742 78.508-68.812 102.945 1.805 2.172 3.633 4.391 5.664 6.422zM673.602 277.336h35.141c74.812-0.086 135.437-60.719 135.523-135.531v-35.141h-35.141c-74.812 0.086-135.445 60.711-135.523 135.531zM464.945 243.203h37.984v34.133h-57.703l-64.047 110.93c-5.43 8.164-16.445 10.383-24.609 4.953-1.961-1.305-3.648-2.992-4.953-4.953l-73.383-127.109-17.070 25.602-28.398-18.945 26.453-39.68-55.398-95.867c-4.711-8.164-1.914-18.602 6.25-23.312 2.594-1.5 5.531-2.289 8.531-2.289h115.914l-16.453-24.656 28.398-18.945 29.070 43.602h138.664c9.43 0 17.070 7.648 17.070 17.070 0 2.992-0.789 5.937-2.289 8.531zM383.469 140.797v34.141h-34.133v-34.141h-101.172l39.406 68.273h61.766v34.133h-42.055l59.117 102.398 48.57-84.125-28.633-42.937 28.398-18.945 19.266 28.914 50.641-87.711z" />
<glyph unicode="&#xe931;" glyph-name="shop-bag-3" d="M997.867 482.133h-273.070v460.797c0 9.43-7.641 17.070-17.062 17.070h-136.539c-9.422 0-17.062-7.641-17.062-17.070v-358.398h-375.469v358.398c0 9.43-7.641 17.070-17.062 17.070h-136.531c-9.43 0-17.070-7.641-17.070-17.070v-989.859c0-9.43 7.641-17.070 17.070-17.070h921.594c8.937-0.023 16.383 6.844 17.070 15.75l32.867 427.984h1.266c9.422 0 17.062 7.641 17.062 17.062v68.273c0 9.422-7.641 17.062-17.062 17.062zM42.133-29.867v955.734h102.398v-358.398c0-9.43 7.641-17.070 17.070-17.070h409.602c9.422 0 17.062 7.641 17.062 17.070v358.398h102.398v-443.734h-136.531c-9.43 0-17.070-7.641-17.070-17.062v-68.266c0-9.43 7.641-17.070 17.070-17.070h1.266l31.5-409.602zM936.102 38.399h-279.57v-34.133h276.961l-2.633-34.133h-309.727l-31.5 409.602h372.734zM980.797 413.867h-409.602v34.133h409.602zM809.125 72.531h52.211c9.422 0 17.062 7.641 17.062 17.070v24.508c48.789 58.078 44.969 143.844-8.789 197.359l-29.133 29.133c-6.664 6.664-17.469 6.664-24.133 0l-29.148-29.133c-4.25-4.312-8.242-8.867-11.945-13.656-21.031 9.023-43.68 13.672-66.562 13.656h-52.156c-9.422 0-17.062-7.641-17.062-17.070v-52.203c0.102-93.656 76-169.562 169.656-169.664zM811.328 287.32l17.062 17.062 17.070-17.062c28.719-28.539 39.812-70.344 29.016-109.367-9.172 41.75-33.742 78.508-68.812 102.945 1.805 2.172 3.633 4.391 5.664 6.422zM673.602 277.336h35.141c74.812-0.086 135.437-60.719 135.523-135.531v-35.141h-35.141c-74.812 0.086-135.445 60.711-135.523 135.531zM464.945 243.203h37.984v34.133h-57.703l-64.047 110.93c-5.43 8.164-16.445 10.383-24.609 4.953-1.961-1.305-3.648-2.992-4.953-4.953l-73.383-127.109-17.070 25.602-28.398-18.945 26.453-39.68-55.398-95.867c-4.711-8.164-1.914-18.602 6.25-23.312 2.594-1.5 5.531-2.289 8.531-2.289h115.914l-16.453-24.656 28.398-18.945 29.070 43.602h138.664c9.43 0 17.070 7.648 17.070 17.070 0 2.992-0.789 5.937-2.289 8.531zM383.469 140.797v34.141h-34.133v-34.141h-101.172l39.406 68.273h61.766v34.133h-42.055l59.117 102.398 48.57-84.125-28.633-42.937 28.398-18.945 19.266 28.914 50.641-87.711z" />
<glyph unicode="&#xe932;" glyph-name="shop-bag" d="M997.867 482.133h-273.070v460.797c0 9.43-7.641 17.070-17.062 17.070h-136.539c-9.422 0-17.062-7.641-17.062-17.070v-358.398h-375.469v358.398c0 9.43-7.641 17.070-17.062 17.070h-136.531c-9.43 0-17.070-7.641-17.070-17.070v-989.859c0-9.43 7.641-17.070 17.070-17.070h921.594c8.937-0.023 16.383 6.844 17.070 15.75l32.867 427.984h1.266c9.422 0 17.062 7.641 17.062 17.062v68.273c0 9.422-7.641 17.062-17.062 17.062zM42.133-29.867v955.734h102.398v-358.398c0-9.43 7.641-17.070 17.070-17.070h409.602c9.422 0 17.062 7.641 17.062 17.070v358.398h102.398v-443.734h-136.531c-9.43 0-17.070-7.641-17.070-17.062v-68.266c0-9.43 7.641-17.070 17.070-17.070h1.266l31.5-409.602zM936.102 38.399h-279.57v-34.133h276.961l-2.633-34.133h-309.727l-31.5 409.602h372.734zM980.797 413.867h-409.602v34.133h409.602zM809.125 72.531h52.211c9.422 0 17.062 7.641 17.062 17.070v24.508c48.789 58.078 44.969 143.844-8.789 197.359l-29.133 29.133c-6.664 6.664-17.469 6.664-24.133 0l-29.148-29.133c-4.25-4.312-8.242-8.867-11.945-13.656-21.031 9.023-43.68 13.672-66.562 13.656h-52.156c-9.422 0-17.062-7.641-17.062-17.070v-52.203c0.102-93.656 76-169.562 169.656-169.664zM811.328 287.32l17.062 17.062 17.070-17.062c28.719-28.539 39.812-70.344 29.016-109.367-9.172 41.75-33.742 78.508-68.812 102.945 1.805 2.172 3.633 4.391 5.664 6.422zM673.602 277.336h35.141c74.812-0.086 135.437-60.719 135.523-135.531v-35.141h-35.141c-74.812 0.086-135.445 60.711-135.523 135.531zM464.945 243.203h37.984v34.133h-57.703l-64.047 110.93c-5.43 8.164-16.445 10.383-24.609 4.953-1.961-1.305-3.648-2.992-4.953-4.953l-73.383-127.109-17.070 25.602-28.398-18.945 26.453-39.68-55.398-95.867c-4.711-8.164-1.914-18.602 6.25-23.312 2.594-1.5 5.531-2.289 8.531-2.289h115.914l-16.453-24.656 28.398-18.945 29.070 43.602h138.664c9.43 0 17.070 7.648 17.070 17.070 0 2.992-0.789 5.937-2.289 8.531zM383.469 140.797v34.141h-34.133v-34.141h-101.172l39.406 68.273h61.766v34.133h-42.055l59.117 102.398 48.57-84.125-28.633-42.937 28.398-18.945 19.266 28.914 50.641-87.711z" />
</font>
</defs>
</svg>
